На всех торрентах на трекере установлена скидка на скачивание в размере 100 процентов(а).
 Возможность скачивания торрента НЕ зависит от ограничений при низком ратио, низком аплоаде, требуемом ратио или требуемом аплоаде.


Начать новую тему Ответить на тему
Статистика раздачи
Размер: 4.37 ГБ | Добавлен: 04 фев 2014, 14:40 | Скачали: 0
Сидеров: 0  [0 байт/сек]    Личеров: 2  [0 байт/сек]
Пред. тема | След. тема 

Автор
Сообщение

СообщениеДобавлено: 04 фев 2014, 14:40 

Название: Байкеры
Оригинальное название: Dhoom
Год выхода: 2004
Жанр: боевик, триллер
Режиссер: Санджай Гадхви

В ролях: Абхишек Баччан, Удай Чопра, Джон Абрахам, Эша Деол, Рими Сен, Маной Джоши, Санджай М. Сингх, Амир Фарид, Мехул Бходжак, Рохит Чопра

Описание: Джай Диксит — полицейский офицер по спецпоручениям. Его жизнь немыслима без работы, он ежедневно упорно сражается с теми, кто покушается на беззащитных людей. И теперь он стоит перед лицом самого большого вызова — перед грабителями высшего сорта на мотоциклах высшего качества.

Четверо мотоциклистов настолько быстрые, что полиция не в силах угнаться за ними. Эта четверка бросила вызов способности Джая служить и защищать. Ставки растут, когда они бросают ему открытый вызов. Теперь это вопрос не просто обязанности, но и чести. Кошки-мышки на улицах Бомбея и Гоа приближают его все ближе к цели.



Страна: Индия
Продолжительность: 02:09:13
Перевод: Профессиональный (Многоголосый, Закадровый) (Формат АВ)


Формат: MKV
Качество: BDRip 720p
Видео: 1280x544 (2.35:1), 24.000 fps, 4460 kbps, 0.267 bit/pixel
Аудио: AC-3, 6 ch, 384 kbps (Многоголосый Формат АВ)
Субтитры: нет

Скачать: Семпл


General
Unique ID : 188297797510222606957711311824679881160 (0x8DA8D62FEBABE7C99AECBE5EC82849C8)
Complete name : Dhoom.2004.BDRip.720p.mkv
Format : Matroska
Format version : Version 2
File size : 4.37 GiB
Duration : 2h 9mn
Overall bit rate : 4 844 Kbps
Encoded date : UTC 2014-01-30 23:30:06
Writing application : mkvmerge v5.6.0 ('Kenya Kane') built on May 27 2012 16:44:04
Writing library : libebml v1.2.3 + libmatroska v1.3.0

Video
ID : 1
Format : AVC
Format/Info : Advanced Video Codec
Format profile : High@L4.1
Format settings, CABAC : Yes
Format settings, ReFrames : 8 frames
Codec ID : V_MPEG4/ISO/AVC
Duration : 2h 9mn
Bit rate : 4 460 Kbps
Width : 1 280 pixels
Height : 544 pixels
Display aspect ratio : 2.35:1
Frame rate mode : Constant
Frame rate : 24.000 fps
Color space : YUV
Chroma subsampling : 4:2:0
Bit depth : 8 bits
Scan type : Progressive
Bits/(Pixel*Frame) : 0.267
Stream size : 3.94 GiB (90%)
Title : Байкеры / Dhoom (2004)
Writing library : x264 core 140 r2377 1ca7bb9
Encoding settings : cabac=1 / ref=8 / deblock=1:-3:-3 / analyse=0x3:0x113 / me=umh / subme=11 / psy=1 / psy_rd=1.00:0.00 / mixed_ref=1 / me_range=32 / chroma_me=1 / trellis=2 / 8x8dct=1 / cqm=0 / deadzone=21,11 / fast_pskip=1 / chroma_qp_offset=-2 / threads=6 / lookahead_threads=1 / sliced_threads=0 / nr=0 / decimate=1 / interlaced=0 / bluray_compat=0 / constrained_intra=0 / bframes=6 / b_pyramid=2 / b_adapt=2 / b_bias=0 / direct=3 / weightb=1 / open_gop=0 / weightp=2 / keyint=240 / keyint_min=24 / scenecut=40 / intra_refresh=0 / rc=2pass / mbtree=0 / bitrate=4460 / ratetol=1.0 / qcomp=0.60 / qpmin=0 / qpmax=69 / qpstep=4 / cplxblur=20.0 / qblur=0.5 / ip_ratio=1.40 / pb_ratio=1.30 / aq=1:1.00
Language : English
Default : Yes
Forced : No
Color primaries : BT.709
Transfer characteristics : BT.709
Matrix coefficients : BT.709

Audio
ID : 2
Format : AC-3
Format/Info : Audio Coding 3
Mode extension : CM (complete main)
Format settings, Endianness : Big
Codec ID : A_AC3
Duration : 2h 9mn
Bit rate mode : Constant
Bit rate : 384 Kbps
Channel count : 6 channels
Channel positions : Front: L C R, Side: L R, LFE
Sampling rate : 48.0 KHz
Bit depth : 16 bits
Compression mode : Lossy
Stream size : 355 MiB (8%)
Title : Многоголосый 5.1 (Формат АВ)
Language : Russian
Default : Yes
Forced : No
загрузка...
Правила, инструкции, FAQ!!!
Торрент  Добавлен [04 фев 2014, 14:40] Скачать торрент
Скачать торрент
[ Размер 22.36 КБ / Просмотров 12 ]

Статус  
 
Размер  4.37 ГБ
Приватный: Нет (DHT включён)
.torrent скачан  0
Как залить торрент? | Как скачать Torrent? | Как смотреть и слушать онлайн?  


     Отправить личное сообщение
   
Страница 1 из 1
Показать сообщения за:  Поле сортировки  
Начать новую тему Ответить на тему

   Похожие торренты   Автор   Ответы   Просмотры   Последнее сообщение 
В этой теме нет новых непрочитанных сообщений. Скачать торрент Проверен Байкеры 3 / Dhoom: 3 (2013) HDRip

в форуме Боевики, Размер: 2.91 ГБ, Здоровье: 100%

Anonymous

0
163|6

49
1295

19 май 2014, 08:00

Anonymous Перейти к последнему сообщению

В этой теме нет новых непрочитанных сообщений. Скачать торрент Байкеры 2: Настоящие чувства / Dhoom:2 (2006) HDRip

в форуме Индийское кино, Размер: 1.48 ГБ, Здоровье: 100%

Anonymous

0
3|0

122
2

20 янв 2014, 12:47

Anonymous Перейти к последнему сообщению

В этой теме нет новых непрочитанных сообщений. Скачать торрент Байкеры / Biker Boyz (2003) BDRip

в форуме Боевики, Размер: 2.18 ГБ, Здоровье: 100%

Anonymous

0
16|2

47
371

20 янв 2014, 12:40

Anonymous Перейти к последнему сообщению

В этой теме нет новых непрочитанных сообщений. Скачать торрент Александр / Alexander (2004) BDRip 720p

в форуме 720p | 1080p, Размер: 6.59 ГБ, Здоровье: 100%

Anonymous

0
34|0

48
36

04 мар 2014, 20:11

Anonymous Перейти к последнему сообщению

В этой теме нет новых непрочитанных сообщений. Скачать торрент Проверен Каратель / The Punisher (2004) BDRip 720p

в форуме 720p | 1080p, Размер: 4.04 ГБ, Здоровье: 100%

Anonymous

0
53|4

241
73

14 дек 2015, 22:47

Anonymous Перейти к последнему сообщению



Сейчас этот форум просматривают: нет зарегистрированных пользователей и гости: 3


Вы не можете начинать темы
Вы не можете отвечать на сообщения
Вы не можете редактировать свои сообщения
Вы не можете удалять свои сообщения
Вы не можете добавлять вложения

Перейти:  

!ВНИМАНИЕ!
 Ресурс не предоставляет электронные версии произведений, а занимается лишь коллекционированием и каталогизацией ссылок, присылаемых и публикуемых на форуме нашими читателями. Если вы являетесь правообладателем какого-либо представленного материала и не желаете чтобы ссылка на него находилась в нашем каталоге, свяжитесь с нами и мы незамедлительно удалим её. Файлы для обмена на трекере предоставлены пользователями сайта, и администрация не несёт ответственности за их содержание. Просьба не заливать файлы, защищенные авторскими правами, а также файлы нелегального содержания!