На всех торрентах на трекере установлена скидка на скачивание в размере 100 процентов(а).
 Возможность скачивания торрента НЕ зависит от ограничений при низком ратио, низком аплоаде, требуемом ратио или требуемом аплоаде.


Начать новую тему Ответить на тему
Статистика раздачи
Размер: 7.94 ГБ | Добавлен: 03 фев 2014, 23:28 | Скачали: 0
Сидеров: 0  [0 байт/сек]    Личеров: 0  [0 байт/сек]
Пред. тема | След. тема 

Автор
Сообщение

СообщениеДобавлено: 03 фев 2014, 23:28 

Дитя человеческое

Children Of Men

«Год 2027: Последние дни человеческой расы. За 18 лет не родилось ни одного ребёнка. Он должен защитить нашу последнюю надежду.»




Год выпуска: 2006
Страна: США , Великобритания
Жанр: фантастика, триллер, драма, приключения
Продолжительность: 01:49:14
Перевод: Профессиональный (дублированный)
Субтитры: Russian (UTF-8), English (UTF-8)

Режиссер: Альфонсо Куарон
Сценарий: Альфонсо Куарон, Тимоти Дж. Секстон, Дэвид Арата, ...
Продюсер: Марк Абрахам, Эрик Ньюман, Хилари Шор, ...
Оператор: Эммануэль Любецки
Композитор: Джон Тэвенер
Художник: Джим Клэй, Джеффри Керклэнд, Рэй Чан, ...
Монтаж: Альфонсо Куарон, Алекс Родригез

В ролях: Клайв Оуэн / Clive Owen (Theo Faron), Клэр-Хоуп Эшити / Claire-Hope Ashitey (Kee), Джулианна Мур / Julianne Moore (Julian), Майкл Кейн / Michael Caine (Jasper), Чарли Ханнэм / Charlie Hunnam (Patric), Чиветель Эджиофор / Chiwetel Ejiofor (Luke), Пэм Феррис / Pam Ferris (Miriam), Дэнни Хьюстон / Danny Huston (Nigel)


Описание: 2027 год. Мир погряз в анархии, причиной которой стало массовое бесплодие. Над человечеством нависла угроза полного вымирания. Лишенный иллюзий бюрократ превращается в чемпиона гонки на выживание в Лондоне, раздираемом клановыми войнами противоборствующих группировок. Именно он встает на защиту «последней надежды человечества» — беременной женщины, которую надо доставить в безопасное место под присмотр врачей…


Бюджет: $76 000 000
Сборы в США: $35 327 768
Сборы в мире: + $33 895 934 = $69 223 702
Сборы в России: $1 168 981
Зрители: США 4.95 млн , Великобритания 995.5 тыс. , Франция 314.5 тыс.
Премьера (мир): 3 сентября 2006, ...
Премьера (РФ): 19 октября 2006, «UIP»
Релиз на DVD: 30 сентября 2008, «Мьюзик-Трейд», ...
Рейтинг MPAA: Лицам до 17 лет обязательно присутствие взрослого




Качество: BDRip
Формат: MKV
Видео кодек: AVC
Аудио кодеk: AC3
Видео: 1920x1040 (16:9), 23.976 fps, AVC, 8 629 Kbps
Аудио #1: AC3, 448 Kbps, 48.0 KHz, 6 ch |Дубляж, Лазер-Видео Мультимедиа|
Аудио #2: AC3, 448 Kbps, 48.0 KHz, 6 ch |DVO - П.Гланц и И.Королёва|
Аудио #3: AC3, 448 Kbps, 48.0 KHz, 6 ch |AVO - В.Королёв|
Аудио #4: AC3, 448 Kbps, 48.0 KHz, 6 ch |English|




Лог :
-[NoImage] x264 [info]: frame I:810 Avg QP:17.38 size:186969
-[NoImage] x264 [info]: frame P:35202 Avg QP:20.41 size: 77318
-[NoImage] x264 [info]: frame B:121145 Avg QP:22.84 size: 34531

General
Complete name : Children.of.Men.2006.BDRip.1080p.mkv
Format : Matroska
File size : 7.94 GiB
Duration : 1h 49mn
Overall bit rate : 10.4 Mbps
Encoded date : UTC 2013-05-04 07:10:31
Writing application : mkvmerge v6.1.0 ('Old Devil') built on Mar 2 2013 14:32:37
Writing library : libebml v1.3.0 + libmatroska v1.4.0

Video
ID : 1
Format : AVC
Format/Info : Advanced Video Codec
Format profile : High@L4.1
Format settings, CABAC : Yes
Format settings, ReFrames : 4 frames
Muxing mode : Container profile=Unknown@4.1
Codec ID : V_MPEG4/ISO/AVC
Duration : 1h 49mn
Bit rate : 8 629 Kbps
Width : 1 920 pixels
Height : 1 040 pixels
Display aspect ratio : 16:9
Frame rate : 23.976 fps
Color space : YUV
Chroma subsampling : 4:2:0
Bit depth : 8 bits
Scan type : Progressive
Bits/(Pixel*Frame) : 0.180
Stream size : 6.42 GiB (81%)
Writing library : x264 core 130 r2273 b3065e6
Encoding settings : cabac=1 / ref=4 / deblock=1:-1:-1 / analyse=0x3:0x133 / me=umh / subme=10 / psy=1 / psy_rd=1.00:0.00 / mixed_ref=1 / me_range=32 / chroma_me=1 / trellis=2 / 8x8dct=1 / cqm=0 / deadzone=21,11 / fast_pskip=0 / chroma_qp_offset=-2 / threads=6 / lookahead_threads=1 / sliced_threads=0 / nr=0 / decimate=1 / interlaced=0 / bluray_compat=0 / constrained_intra=0 / bframes=10 / b_pyramid=2 / b_adapt=2 / b_bias=0 / direct=3 / weightb=1 / open_gop=0 / weightp=2 / keyint=240 / keyint_min=24 / scenecut=40 / intra_refresh=0 / rc=2pass / mbtree=0 / bitrate=8629 / ratetol=2.0 / qcomp=1.00 / qpmin=0 / qpmax=51 / qpstep=4 / cplxblur=20.0 / qblur=0.5 / ip_ratio=1.40 / pb_ratio=1.30 / aq=1:1.00
Color primaries : BT.709-5, BT.1361, IEC 61966-2-4, SMPTE RP177
Transfer characteristics : BT.709-5, BT.1361
Matrix coefficients : BT.709-5, BT.1361, IEC 61966-2-4 709, SMPTE RP177

Audio #1
ID : 2
Format : AC-3
Format/Info : Audio Coding 3
Mode extension : CM (complete main)
Codec ID : A_AC3
Duration : 1h 49mn
Bit rate mode : Constant
Bit rate : 448 Kbps
Channel(s) : 6 channels
Channel positions : Front: L C R, Side: L R, LFE
Sampling rate : 48.0 KHz
Bit depth : 16 bits
Stream size : 350 MiB (4%)
Title : Дубляж
Language : Russian

Audio #2
ID : 3
Format : AC-3
Format/Info : Audio Coding 3
Mode extension : CM (complete main)
Codec ID : A_AC3
Duration : 1h 49mn
Bit rate mode : Constant
Bit rate : 448 Kbps
Channel(s) : 6 channels
Channel positions : Front: L C R, Side: L R, LFE
Sampling rate : 48.0 KHz
Bit depth : 16 bits
Stream size : 350 MiB (4%)
Title : - DVO -
Language : Russian

Audio #3
ID : 4
Format : AC-3
Format/Info : Audio Coding 3
Mode extension : CM (complete main)
Codec ID : A_AC3
Duration : 1h 49mn
Bit rate mode : Constant
Bit rate : 448 Kbps
Channel(s) : 6 channels
Channel positions : Front: L C R, Side: L R, LFE
Sampling rate : 48.0 KHz
Bit depth : 16 bits
Stream size : 350 MiB (4%)
Title : - AVO -
Language : Russian

Audio #4
ID : 5
Format : AC-3
Format/Info : Audio Coding 3
Mode extension : CM (complete main)
Codec ID : A_AC3
Duration : 1h 49mn
Bit rate mode : Constant
Bit rate : 448 Kbps
Channel(s) : 6 channels
Channel positions : Front: L C R, Side: L R, LFE
Sampling rate : 48.0 KHz
Bit depth : 16 bits
Stream size : 350 MiB (4%)

Text #1
ID : 6
Format : UTF-8
Codec ID : S_TEXT/UTF8
Codec ID/Info : UTF-8 Plain Text
Language : Russian

Text #2
ID : 7
Format : UTF-8
Codec ID : S_TEXT/UTF8
Codec ID/Info : UTF-8 Plain Text
Language : English

Menu
00:00:00.000 : en:00:00:00.000
00:07:17.895 : en:00:07:17.895
00:11:02.662 : en:00:11:02.662
00:16:44.670 : en:00:16:44.670
00:21:07.975 : en:00:21:07.975
00:25:53.134 : en:00:25:53.134
00:30:20.985 : en:00:30:20.985
00:37:27.078 : en:00:37:27.078
00:42:37.888 : en:00:42:37.888
00:47:31.515 : en:00:47:31.515
00:55:28.408 : en:00:55:28.408
01:00:23.661 : en:01:00:23.661
01:07:08.441 : en:01:07:08.441
01:11:53.225 : en:01:11:53.225
01:16:26.707 : en:01:16:26.707
01:21:21.626 : en:01:21:21.626
01:23:50.608 : en:01:23:50.608
01:31:26.564 : en:01:31:26.564
01:34:48.599 : en:01:34:48.599
01:40:18.387 : en:01:40:18.387





Релиз группы:
загрузка...
Правила, инструкции, FAQ!!!
Торрент  Добавлен [03 фев 2014, 23:28] Скачать торрент
Скачать торрент
[ Размер 40.17 КБ / Просмотров 7 ]

Статус  
 
Размер  7.94 ГБ
Приватный: Нет (DHT включён)
.torrent скачан  0
Как залить торрент? | Как скачать Torrent? | Как смотреть и слушать онлайн?  


     Отправить личное сообщение
   
Страница 1 из 1
Показать сообщения за:  Поле сортировки  
Начать новую тему Ответить на тему

   Похожие торренты   Автор   Ответы   Просмотры   Последнее сообщение 
В этой теме нет новых непрочитанных сообщений. Скачать торрент Дитя человеческое / Children Of Men (2006) BDRip

в форуме Фантастика, Фэнтези, Размер: 2.19 ГБ, Здоровье: 100%

Anonymous

0
23|1

34
325

03 фев 2014, 23:23

Anonymous Перейти к последнему сообщению

В этой теме нет новых непрочитанных сообщений. Скачать торрент Проверен Алистер Кроули / Alister Crowley - Лунное дитя / Children moon (Moonchild) [2006, DOC, RUS]

в форуме Эзотерика, гадания, магия, фен-шуй, Размер: 1.19 МБ, Здоровье: 0%

Anonymous

0
0|0

1
0

28 авг 2016, 21:54

Anonymous Перейти к последнему сообщению

В этой теме нет новых непрочитанных сообщений. Скачать торрент Проверен Библиотека всемирной литературы - Нексе М.А. - Дитте - дитя человеческое [1969, DjVu, RUS]

в форуме Зарубежная литература (XX и XXI век), Размер: 23.94 МБ, Здоровье: 0%

Anonymous

0
0|0

0
0

08 сен 2016, 18:40

Anonymous Перейти к последнему сообщению

В этой теме нет новых непрочитанных сообщений. Скачать торрент Проверен (Art-Rock) The Moody Blues - To Our Children's Children's Children - 2006, FLAC (tracks+.cue)

в форуме Progressive & Art-Rock, Размер: 461.29 МБ, Здоровье: 100%

Anonymous

0
5|1

2
0

30 авг 2016, 23:26

Anonymous Перейти к последнему сообщению

В этой теме нет новых непрочитанных сообщений. Скачать торрент Проверен [SACD-R][OF] The Moody Blues – To Our Children’s Children’s Children - 2006 (Deluxe Edition)

в форуме DTS CD / SACD-R, Размер: 2.4 ГБ, Здоровье: 100%

Anonymous

0
20|4

29
2

28 окт 2016, 23:01

Anonymous Перейти к последнему сообщению



Сейчас этот форум просматривают: нет зарегистрированных пользователей и гости: 2


Вы не можете начинать темы
Вы не можете отвечать на сообщения
Вы не можете редактировать свои сообщения
Вы не можете удалять свои сообщения
Вы не можете добавлять вложения

Перейти:  

!ВНИМАНИЕ!
 Ресурс не предоставляет электронные версии произведений, а занимается лишь коллекционированием и каталогизацией ссылок, присылаемых и публикуемых на форуме нашими читателями. Если вы являетесь правообладателем какого-либо представленного материала и не желаете чтобы ссылка на него находилась в нашем каталоге, свяжитесь с нами и мы незамедлительно удалим её. Файлы для обмена на трекере предоставлены пользователями сайта, и администрация не несёт ответственности за их содержание. Просьба не заливать файлы, защищенные авторскими правами, а также файлы нелегального содержания!