На всех торрентах на трекере установлена скидка на скачивание в размере 100 процентов(а).
 Возможность скачивания торрента НЕ зависит от ограничений при низком ратио, низком аплоаде, требуемом ратио или требуемом аплоаде.


Начать новую тему Ответить на тему
Статистика раздачи
Размер: 7.75 ГБ | Добавлен: 03 фев 2014, 19:20 | Скачали: 0
Сидеров: 0  [0 байт/сек]    Личеров: 0  [0 байт/сек]
Пред. тема | След. тема 

Автор
Сообщение

СообщениеДобавлено: 03 фев 2014, 19:20 

Название: Убежище
Оригинальное название: Shelter
Год выпуска: 2010
Жанр: Ужасы, триллер, детектив
Выпущено: США, Macari/Edelstein, NALA Films LLC, NALA Investments, Shelter Productions
Режиссер: Манс Марлинд, Бьёрн Стейн

В ролях: Джулианна Мур, Джонатан Рис Майерс, Джеффри ДеМанн, Фрэнсис Конрой, Натан Кордри, Бруклин Пру, Брайан Энтони Уилсон, Джойс Фьюрринг, Стивен Ришард, Чарльз Текман

Перевод: Дублированный

Сюжет фильма
Мать-одиночка и практикующий психиатр Кара Джессап ведет тему разоблачения идеи о синдроме раздвоения личности. Но однажды она сталкивается с пациентом, чья болезнь не поддается рациональному объяснению: под личиной обычного человека живет демон, который крадет души мертвых…




Качество: BDRip 1080p (исходник Blu-ray)
Видео: 1920x816, 8 614 Кбит/сек, 23.976 кадр/сек, AVC, x264, High@L4.1, 0.229 Бит/[Пиксели*Кадры], 2pass
Аудио 1: AC3 5.1 48 kHz 640 kbps - Дублированный
Аудио 2: AC3 5.1 48 kHz 640 kbps - English

Чаптеры: есть
Субтитры: Russian
Продолжительность: 01:52:15

Автор Рипа: Сообщество:


Format : Matroska
Format version : Version 2
File size : 7.75 GiB
Duration : 1h 52mn
Overall bit rate : 9 886 Kbps
Movie name : Ubezhishhe.(2010).BDRip.1080p.[denis100]
Encoded date : UTC 2014-02-03 12:16:48
Writing application : mkvmerge v5.8.0 ('No Sleep / Pillow') built on Sep 2 2012 15:37:04
Writing library : libebml v1.2.3 + libmatroska v1.3.0

Video
ID : 1
Format : AVC
Format/Info : Advanced Video Codec
Format profile : High@L4.1
Format settings, CABAC : Yes
Format settings, ReFrames : 5 frames
Codec ID : V_MPEG4/ISO/AVC
Duration : 1h 52mn
Bit rate : 8 614 Kbps
Width : 1 920 pixels
Height : 816 pixels
Display aspect ratio : 2.35:1
Frame rate mode : Constant
Frame rate : 23.976 fps
Color space : YUV
Chroma subsampling : 4:2:0
Bit depth : 8 bits
Scan type : Progressive
Bits/(Pixel*Frame) : 0.229
Stream size : 6.59 GiB (85%)
Title : Ubezhishhe.(2010).BDRip.1080p от _denis_100
Writing library : x264 core 138 r2358 9e941d1
Encoding settings : cabac=1 / ref=5 / deblock=1:-3:-3 / analyse=0x3:0x133 / me=umh / subme=11 / psy=1 / psy_rd=1.00:0.10 / mixed_ref=1 / me_range=32 / chroma_me=1 / trellis=2 / 8x8dct=1 / cqm=0 / deadzone=21,11 / fast_pskip=0 / chroma_qp_offset=-3 / threads=6 / lookahead_threads=1 / sliced_threads=0 / nr=0 / decimate=0 / interlaced=0 / bluray_compat=0 / constrained_intra=0 / bframes=6 / b_pyramid=2 / b_adapt=2 / b_bias=0 / direct=3 / weightb=1 / open_gop=0 / weightp=2 / keyint=230 / keyint_min=22 / scenecut=40 / intra_refresh=0 / rc=2pass / mbtree=0 / bitrate=8614 / ratetol=1.0 / qcomp=0.60 / qpmin=0 / qpmax=69 / qpstep=4 / cplxblur=20.0 / qblur=0.5 / ip_ratio=1.40 / pb_ratio=1.30 / aq=1:0.80
Language : English
Default : Yes
Forced : No

Audio #1
ID : 2
Format : AC-3
Format/Info : Audio Coding 3
Mode extension : CM (complete main)
Format settings, Endianness : Big
Codec ID : A_AC3
Duration : 1h 52mn
Bit rate mode : Constant
Bit rate : 640 Kbps
Channel count : 6 channels
Channel positions : Front: L C R, Side: L R, LFE
Sampling rate : 48.0 KHz
Bit depth : 16 bits
Compression mode : Lossy
Stream size : 514 MiB (6%)
Title : Дублированный
Language : Russian
Default : Yes
Forced : No

Audio #2
ID : 3
Format : AC-3
Format/Info : Audio Coding 3
Mode extension : CM (complete main)
Format settings, Endianness : Big
Codec ID : A_AC3
Duration : 1h 52mn
Bit rate mode : Constant
Bit rate : 640 Kbps
Channel count : 6 channels
Channel positions : Front: L C R, Side: L R, LFE
Sampling rate : 48.0 KHz
Bit depth : 16 bits
Compression mode : Lossy
Stream size : 514 MiB (6%)
Title : English
Language : English
Default : No
Forced : No

Text
ID : 4
Format : UTF-8
Codec ID : S_TEXT/UTF8
Codec ID/Info : UTF-8 Plain Text
Title : Русские
Language : Russian
Default : No
Forced : No

Menu
00:00:00.000 : en:00:00:00.000
00:09:08.089 : en:00:09:08.089
00:18:14.802 : en:00:18:14.802
00:24:33.555 : en:00:24:33.555
00:29:54.501 : en:00:29:54.501
00:36:29.145 : en:00:36:29.145
00:43:57.051 : en:00:43:57.051
00:49:49.153 : en:00:49:49.153
00:56:19.084 : en:00:56:19.084
01:06:24.439 : en:01:06:24.439
01:14:38.474 : en:01:14:38.474
01:21:18.332 : en:01:21:18.332
01:29:22.899 : en:01:29:22.899
01:37:21.961 : en:01:37:21.961
01:42:27.058 : en:01:42:27.058
01:47:58.389 : en:01:47:58.389
загрузка...
Правила, инструкции, FAQ!!!
Торрент  Добавлен [03 фев 2014, 19:20] Скачать торрент
Скачать торрент
[ Размер 39.28 КБ / Просмотров 4 ]

Статус  
 
Размер  7.75 ГБ
Приватный: Нет (DHT включён)
.torrent скачан  0
Как залить торрент? | Как скачать Torrent? | Как смотреть и слушать онлайн?  


     Отправить личное сообщение
   
Страница 1 из 1
Показать сообщения за:  Поле сортировки  
Начать новую тему Ответить на тему

   Похожие торренты   Автор   Ответы   Просмотры   Последнее сообщение 
В этой теме нет новых непрочитанных сообщений. Скачать торрент Убежище / Shelter (Манс Марлинд / Måns Mårlind, Бьёрн Стейн / Björn Stein) [2010, США, мистика, ужасы, триллер, BDRip]

в форуме Ужасы, Размер: 1.45 ГБ, Здоровье: 0%

Anonymous

0
0|0

63
0

14 фев 2014, 07:44

Anonymous Перейти к последнему сообщению

В этой теме нет новых непрочитанных сообщений. Скачать торрент Проверен Подари мне убежище / Gimme Shelter (2013) HDRip | iTunes

в форуме Драмы, Мелодрамы, Размер: 1.46 ГБ, Здоровье: 100%

Anonymous

0
37|2

45
20

03 май 2015, 21:38

Anonymous Перейти к последнему сообщению

В этой теме нет новых непрочитанных сообщений. Скачать торрент Проверен (Melodic Rock / AOR) Shelter - Shelter - 1991, MP3, 192 kbps

в форуме AOR (Melodic Hard Rock, Arena rock), Размер: 32.67 МБ, Здоровье: 0%

Anonymous

0
0|0

2
0

08 окт 2016, 10:20

Anonymous Перейти к последнему сообщению

В этой теме нет новых непрочитанных сообщений. Скачать торрент Проверен The Rolling Stones - Gimme Shelter [1970, Rock, Documentary, BDRip 720p]

в форуме Концерты (HD-Video), Размер: 4.37 ГБ, Здоровье: 100%

Anonymous

0
5|1

7
1

23 окт 2016, 16:27

Anonymous Перейти к последнему сообщению

В этой теме нет новых непрочитанных сообщений. Скачать торрент Кандагар (2010) BDRip 1080p

в форуме 720p | 1080p, Размер: 4.36 ГБ, Здоровье: 0%

Anonymous

0
0|0

22
0

17 янв 2014, 15:40

Anonymous Перейти к последнему сообщению



Сейчас этот форум просматривают: нет зарегистрированных пользователей и гости: 2


Вы не можете начинать темы
Вы не можете отвечать на сообщения
Вы не можете редактировать свои сообщения
Вы не можете удалять свои сообщения
Вы не можете добавлять вложения

Перейти:  

!ВНИМАНИЕ!
 Ресурс не предоставляет электронные версии произведений, а занимается лишь коллекционированием и каталогизацией ссылок, присылаемых и публикуемых на форуме нашими читателями. Если вы являетесь правообладателем какого-либо представленного материала и не желаете чтобы ссылка на него находилась в нашем каталоге, свяжитесь с нами и мы незамедлительно удалим её. Файлы для обмена на трекере предоставлены пользователями сайта, и администрация не несёт ответственности за их содержание. Просьба не заливать файлы, защищенные авторскими правами, а также файлы нелегального содержания!