На всех торрентах на трекере установлена скидка на скачивание в размере 100 процентов(а).
 Возможность скачивания торрента НЕ зависит от ограничений при низком ратио, низком аплоаде, требуемом ратио или требуемом аплоаде.


Начать новую тему Ответить на тему
Статистика раздачи
Размер: 3.66 ГБ | Добавлен: 02 фев 2014, 12:00 | Скачали: 0
Сидеров: 8  [0 байт/сек]    Личеров: 3  [0 байт/сек]
Пред. тема | След. тема 

Автор
Сообщение

СообщениеДобавлено: 02 фев 2014, 12:00 

Название: День сурка
Оригинальное название: Groundhog Day
Год выхода: 1993
Жанр: фэнтези, драма, мелодрама, комедия
Режиссер: Харольд Рэмис

В ролях: Билл Мюррэй, Энди МакДауэлл, Крис Эллиотт, Стивен Тоболовски, Брайан Дойл-Мюррей, Марита Герати, Анджела Пэтон, Рик Дукомман, Рик Овертон, Робин Дьюк, Кэрол Бивинс, Уилли Гарсон, Кен Хадсон Кэмпбелл, Лес Подвелл, Род Селл, Том Миланович, Джон М. Уотсон ст., Пегги Родер, Харольд Рэмис, Дэвид Паскуэзи, Ли Р. Селларс, Чет Дубовски, Сэнди Машмейер, Лейган О’Нил, Эванджелин Бинкли, Сэмюэл Мэйджс, Бен Цвик, Хинден Уолш, Майкл Шеннон, Тимоти Хендирксон, Марта Уэбстер, Анджела Дезен, Шон Чаиябхэт, Дайян Б. Шоу, Барбара Энн Граймс, Энн Хикин, Люсина Паке, Бренда Пиклман, Эми Мердок, Эрик Сайет, Линдсэй Альберт, Роджер Адлер, Бен А. Фиш

Вкратце:
Телевизионный комментатор Фил Коннорс каждый год приезжает в маленький городок в штате Пенсильвания на празднование Дня сурка. Но на этот раз веселье рискует зайти слишком далеко. Время сыграло с ним злую шутку: оно взяло да и остановилось. Теперь на календаре Фила чернеет одна и та же дата — 2 февраля, из которой он никак не может выбраться. Неунывающий ведущий пытается извлечь выгоду из своего комичного положения: впереди у него уйма времени и безмятежное предсказуемое будущее. Отныне с ним не случится ничего плохого… и ничего хорошего. У Фила осталась одна заветная мечта, простая и незамысловатая — 3 февраля…



Страна: США
Студия: Columbia Pictures Corporation
Продолжительность: 01:41:04
Перевод: Профессиональный многоголосый, профессиональный двухголосый, авторский


Кодек: h.264
Качество: BDRip-AVC
Видео: 2883 Кбит/с, 1024x556, 23.976 кадр/с

Звук:
• №1: Русский (AC3, 6 ch, 384 Кбит/с) / Профессиональный двухголосый (R5, Видеосервис)
• №2: Русский (AC3, 6 ch, 384 Кбит/с) / Профессиональный многоголосый (ОРТ)
• №3: Русский (AC3, 6 ch, 384 Кбит/с) / Авторский одноголосый (Андрей Гаврилов)
• №4: Английский (AC3, 6 ch, 384 Кбит/с)
Отдельно:
• №5: Русский (AC3, 2 ch, 192 Кбит/с) / Профессиональный многоголосый (РЕН-ТВ)
• №6: Русский (AC3, 2 ch, 192 Кбит/с) / Профессиональный многоголосый (РТР)
• №7: Русский (AC3, 2 ch, 192 Кбит/с) / Авторский одноголосый (Сергей Визгунов)
• №8: Украинский (AC3, 2 ch, 192 Кбит/с) / Профессиональный многоголосый

Субтитры:
• №1: Русские
• №2: Русские (GЕLULА & Сo)
• №3: Русские (Igor Gindin)
• №4: Русские (sunny-sko)
• №5: Русские (Alex Raynor)
• №6: Английские

-------------------------------------------------------------------
x264 [info]: frame I:954 Avg QP:17.65 size: 91345
x264 [info]: frame P:28676 Avg QP:20.51 size: 31359
x264 [info]: frame B:115753 Avg QP:22.02 size: 10361
-------------------------------------------------------------------

Полное имя : Grounhog.Day.1993.x264.BDRip-AVC.0ptimus.mkv
Формат : Matroska
Версия формата : Version 2
Размер файла : 3,12 Гбайт
Продолжительность : 1 ч. 41 м.
Общий поток : 4423 Кбит/сек
Название фильма : День сурка | Groundhog Day [1993] -= BDRip (AVC) by 0ptimus =-
Дата кодирования : UTC 2014-02-01 13:02:53
Программа кодирования : mkvmerge v6.6.0 ('The Edge Of The In Between') built on Dec 1 2013 17:55:00
Библиотека кодирования : libebml v1.3.0 + libmatroska v1.4.1

Видео
Идентификатор : 1
Формат : AVC
Формат/Информация : Advanced Video Codec
Профиль формата : High@L4.1
Параметр CABAC формата : Да
Параметр ReFrames формата : 9 кадров
Идентификатор кодека : V_MPEG4/ISO/AVC
Продолжительность : 1 ч. 41 м.
Битрейт : 2883 Кбит/сек
Ширина : 1024 пикселя
Высота : 556 пикселей
Соотношение сторон : 1,85:1
Режим частоты кадров : Постоянный
Частота кадров : 23,976 кадра/сек
Цветовое пространство : YUV
Субдискретизация насыщенности : 4:2:0
Битовая глубина : 8 бит
Тип развёртки : Прогрессивная
Бит/(Пиксели*Кадры) : 0.211
Размер потока : 1,98 Гбайт (63%)
Заголовок : Rip by 0ptimus
Библиотека кодирования : x264 core 133 r2334 a3ac64b
Настройки программы : cabac=1 / ref=9 / deblock=1:-3:-3 / analyse=0x3:0x113 / me=umh / subme=11 / psy=1 / psy_rd=1.00:0.20 / mixed_ref=1 / me_range=48 / chroma_me=1 / trellis=2 / 8x8dct=1 / cqm=0 / deadzone=21,11 / fast_pskip=0 / chroma_qp_offset=-3 / threads=3 / lookahead_threads=1 / sliced_threads=0 / nr=0 / decimate=0 / interlaced=0 / bluray_compat=0 / constrained_intra=0 / bframes=11 / b_pyramid=2 / b_adapt=2 / b_bias=0 / direct=3 / weightb=1 / open_gop=0 / weightp=2 / keyint=240 / keyint_min=23 / scenecut=40 / intra_refresh=0 / rc_lookahead=40 / rc=2pass / mbtree=0 / bitrate=2883 / ratetol=1.0 / qcomp=0.60 / qpmin=0 / qpmax=69 / qpstep=4 / cplxblur=20.0 / qblur=0.5 / vbv_maxrate=50000 / vbv_bufsize=50000 / nal_hrd=none / ip_ratio=1.40 / pb_ratio=1.30 / aq=1:1.00
Язык : English
Default : Да
Forced : Да

Аудио #1
Идентификатор : 2
Формат : AC-3
Формат/Информация : Audio Coding 3
Расширение режима : CM (complete main)
Параметр Endianness формата : Big
Идентификатор кодека : A_AC3
Продолжительность : 1 ч. 41 м.
Вид битрейта : Постоянный
Битрейт : 384 Кбит/сек
Каналы : 6 каналов
Расположение каналов : Front: L C R, Side: L R, LFE
Частота : 48,0 КГц
Битовая глубина : 16 бит
Метод сжатия : С потерями
Размер потока : 278 Мбайт (9%)
Заголовок : Двухголосый закадровый [R5, Видеосервис] AC3 5.1 @ 384 kbps
Язык : Russian
Default : Да
Forced : Да

Аудио #2
Идентификатор : 3
Формат : AC-3
Формат/Информация : Audio Coding 3
Расширение режима : CM (complete main)
Параметр Endianness формата : Big
Идентификатор кодека : A_AC3
Продолжительность : 1 ч. 41 м.
Вид битрейта : Постоянный
Битрейт : 384 Кбит/сек
Каналы : 6 каналов
Расположение каналов : Front: L C R, Side: L R, LFE
Частота : 48,0 КГц
Битовая глубина : 16 бит
Метод сжатия : С потерями
Размер потока : 278 Мбайт (9%)
Заголовок : Многоголосый закадровый [ОРТ] AC3 5.1 @ 384 kbps
Язык : Russian
Default : Нет
Forced : Нет

Аудио #3
Идентификатор : 4
Формат : AC-3
Формат/Информация : Audio Coding 3
Расширение режима : CM (complete main)
Параметр Endianness формата : Big
Идентификатор кодека : A_AC3
Продолжительность : 1 ч. 41 м.
Вид битрейта : Постоянный
Битрейт : 384 Кбит/сек
Каналы : 6 каналов
Расположение каналов : Front: L C R, Side: L R, LFE
Частота : 48,0 КГц
Битовая глубина : 16 бит
Метод сжатия : С потерями
Размер потока : 278 Мбайт (9%)
Заголовок : Авторский [Андрей Гаврилов] AC3 5.1 @ 384 kbps
Язык : Russian
Default : Нет
Forced : Нет

Аудио #4
Идентификатор : 5
Формат : AC-3
Формат/Информация : Audio Coding 3
Расширение режима : CM (complete main)
Параметр Endianness формата : Big
Идентификатор кодека : A_AC3
Продолжительность : 1 ч. 41 м.
Вид битрейта : Постоянный
Битрейт : 384 Кбит/сек
Каналы : 6 каналов
Расположение каналов : Front: L C R, Side: L R, LFE
Частота : 48,0 КГц
Битовая глубина : 16 бит
Метод сжатия : С потерями
Размер потока : 278 Мбайт (9%)
Заголовок : AC3 5.1 @ 384 kbps
Язык : English
Default : Нет
Forced : Нет

Текст #1
Идентификатор : 6
Формат : UTF-8
Идентификатор кодека : S_TEXT/UTF8
Идентификатор кодека/Информация : UTF-8 Plain Text
Язык : Russian
Default : Нет
Forced : Нет

Текст #2
Идентификатор : 7
Формат : UTF-8
Идентификатор кодека : S_TEXT/UTF8
Идентификатор кодека/Информация : UTF-8 Plain Text
Заголовок : GЕLULА & Сo
Язык : Russian
Default : Нет
Forced : Нет

Текст #3
Идентификатор : 8
Формат : UTF-8
Идентификатор кодека : S_TEXT/UTF8
Идентификатор кодека/Информация : UTF-8 Plain Text
Заголовок : Igor Gindin
Язык : Russian
Default : Нет
Forced : Нет

Текст #4
Идентификатор : 9
Формат : UTF-8
Идентификатор кодека : S_TEXT/UTF8
Идентификатор кодека/Информация : UTF-8 Plain Text
Заголовок : sunny-sko
Язык : Russian
Default : Нет
Forced : Нет

Текст #5
Идентификатор : 10
Формат : UTF-8
Идентификатор кодека : S_TEXT/UTF8
Идентификатор кодека/Информация : UTF-8 Plain Text
Заголовок : Alex Raynor
Язык : Russian
Default : Нет
Forced : Нет

Текст #6
Идентификатор : 11
Формат : UTF-8
Идентификатор кодека : S_TEXT/UTF8
Идентификатор кодека/Информация : UTF-8 Plain Text
Язык : English
Default : Нет
Forced : Нет

Меню
00:00:00.000 : en:Start
00:00:42.625 : en:A New Producer
00:04:22.679 : en:Punxsutawney
00:07:05.967 : en:Groundhog Day
00:10:26.626 : en:Gobbler's Knob 1
00:13:46.826 : en:Storm Warning
00:19:28.041 : en:Groundhog Day 2
00:24:15.162 : en:Gobbler's Knog 2
00:26:08.149 : en:Groundhog Day 3
00:26:49.566 : en:Gobbler's Knob 3
00:29:48.745 : en:Phil Seeks Help
00:36:46.913 : en:Groundhog Day 4
00:38:49.744 : en:No More Worries
00:42:04.605 : en:Phil Meets Nancy
00:48:40.626 : en:Groundhog Day 5
00:50:23.103 : en:Heist
00:51:22.454 : en:Groundhog Day 6
00:53:47.224 : en:Perfect Guy
00:56:23.463 : en:Gobbler Knob ?
01:00:57.737 : en:Day By Day
01:02:19.193 : en:Phil Kidnpas Phil
01:06:12.426 : en:Convincing Rita
01:09:46.390 : en:Phil's New Image
01:15:26.522 : en:Literature & Music
01:19:02.738 : en:Old Man Saga
01:19:22.215 : en:A Long Winter
01:21:06.653 : en:Guardian Angel
01:28:16.291 : en:Groundhog Dinner
01:31:11.924 : en:Rock-Maninoff
01:35:21.716 : en:Bidding for Phil
01:37:59.623 : en:A Warm Face



Релиз от:
загрузка...
Правила, инструкции, FAQ!!!
Торрент  Добавлен [02 фев 2014, 12:00] Скачать торрент
Скачать торрент
[ Размер 38.05 КБ / Просмотров 10 ]

Статус  
 
Размер  3.66 ГБ
Приватный: Нет (DHT включён)
.torrent скачан  0
Как залить торрент? | Как скачать Torrent? | Как смотреть и слушать онлайн?  


     Отправить личное сообщение
   
Страница 1 из 1
Показать сообщения за:  Поле сортировки  
Начать новую тему Ответить на тему

   Похожие торренты   Автор   Ответы   Просмотры   Последнее сообщение 
В этой теме нет новых непрочитанных сообщений. Скачать торрент Проверен День сурка / Groundhog Day (1993) BDRip 1080p

в форуме 720p | 1080p, Размер: 5.77 ГБ, Здоровье: 100%

Гость

0
124|7

48
11

21 май 2015, 10:26

Гость Перейти к последнему сообщению

В этой теме нет новых непрочитанных сообщений. Скачать торрент Проверен День сурка / Groundhog Day (1993) BDRip 720p | P

в форуме 720p | 1080p, Размер: 3.33 ГБ, Здоровье: 100%

Anonymous

0
90|5

41
67

21 май 2015, 10:30

Anonymous Перейти к последнему сообщению

В этой теме нет новых непрочитанных сообщений. Скачать торрент Проверен Скалолаз / Cliffhanger (1993) BDRip

в форуме Боевики, Размер: 1.45 ГБ, Здоровье: 100%

Anonymous

0
27|2

66
212

21 сен 2014, 11:56

Anonymous Перейти к последнему сообщению

В этой теме нет новых непрочитанных сообщений. Скачать торрент Фирма / The Firm (1993) BDRip

в форуме Триллеры, Размер: 2.18 ГБ, Здоровье: 0%

Anonymous

0
0|0

31
0

07 янв 2014, 20:52

Anonymous Перейти к последнему сообщению

В этой теме нет новых непрочитанных сообщений. Скачать торрент Проверен Сирены / Sirens (1993) BDRip | P, A

в форуме Комедии, Размер: 1.98 ГБ, Здоровье: 100%

Anonymous

0
7|5

135
57

15 сен 2014, 14:09

Anonymous Перейти к последнему сообщению



Сейчас этот форум просматривают: нет зарегистрированных пользователей и гости: 3


Вы не можете начинать темы
Вы не можете отвечать на сообщения
Вы не можете редактировать свои сообщения
Вы не можете удалять свои сообщения
Вы не можете добавлять вложения

Перейти:  

!ВНИМАНИЕ!
 Ресурс не предоставляет электронные версии произведений, а занимается лишь коллекционированием и каталогизацией ссылок, присылаемых и публикуемых на форуме нашими читателями. Если вы являетесь правообладателем какого-либо представленного материала и не желаете чтобы ссылка на него находилась в нашем каталоге, свяжитесь с нами и мы незамедлительно удалим её. Файлы для обмена на трекере предоставлены пользователями сайта, и администрация не несёт ответственности за их содержание. Просьба не заливать файлы, защищенные авторскими правами, а также файлы нелегального содержания!