На всех торрентах на трекере установлена скидка на скачивание в размере 100 процентов(а).
 Возможность скачивания торрента НЕ зависит от ограничений при низком ратио, низком аплоаде, требуемом ратио или требуемом аплоаде.


Начать новую тему Ответить на тему
Статистика раздачи
Размер: 7.76 ГБ | Добавлен: 02 фев 2014, 11:49 | Скачали: 0
Сидеров: 0  [0 байт/сек]    Личеров: 0  [0 байт/сек]
Пред. тема | След. тема 

Автор
Сообщение

СообщениеДобавлено: 02 фев 2014, 11:49 

Название: Талантливый мистер Рипли
Оригинальное название: The Talented mr. Ripley
Год выхода: 1999
Жанр: Триллер, драма, криминал, музыка
Режиссер: Энтони Мингелла

В ролях: Мэтт Дэймон, Джуд Лоу, Гвинет Пэлтроу, Филип Сеймур Хоффман, Кейт Бланшетт, Джек Девенпорт, Джеймс Ребхорн, Серджо Рубини, Филип Бейкер Холл, Селия Уэстон

Вкратце:
Том Рипли знал, что рано или поздно он пробьется наверх. Однажды, после случайного знакомства, один из богатейших людей Америки дает Тому поручение съездить в Италию и убедить его сына, транжирящего деньги в Европе, вернуться в Штаты…

Вскоре Том уже знакомится с Дики Гринлифом и Мардж. Их роскошная жизнь очаровывает Тома. А позже обстоятельства складываются так, что он решает занять место Дики.



Страна: США
Студия: Miramax Films, Paramount Pictures
Продолжительность: 02:19:06
Перевод: Дублированный |R5| + Авторский (одноголосый, закадровый) Сергей Визгунов + Оригинал


Кодек: x264
Качество: BDRip 720p (источник: BLUEBIRD / Blu-ray Disc / 1080i)
Видео: 1280х720 (16:9), 6323 Kbps, 23.976 fps, 0.286 bit/pixel
Аудио #1: 48.0 kHz, AC3 Dolby Digital, 3/2 (L,C,R,l,r) + LFE ch, 384 kbps [Дубляж, R5]
Аудио #2: 48.0 kHz, AC3 Dolby Digital, 3/2 (L,C,R,l,r) + LFE ch, 640 kbps [Авторский, С. Визгунов]
Аудио #3: 48.0 kHz, AC3 Dolby Digital, 3/2 (L,C,R,l,r) + LFE ch, 640 kbps [Оригинал, Английский]
Субтитры: Русские, английские [SDH]

Семпл



x264 [info]: frame I:1318 Avg QP:17.50 size:116034
x264 [info]: frame P:37238 Avg QP:20.58 size: 54117
x264 [info]: frame B:161555 Avg QP:22.49 size: 27394
General
Unique ID : 218350203318743667481202211482770726302 (0xA444B830B93485EF9A2A15C174D1DD9E)
Complete name : E:The.Talented.mr.Ripley.1999.x264.BDRip.720p.mkv
Format : Matroska
Format version : Version 2
File size : 7.76 GiB
Duration : 2h 19mn
Overall bit rate : 7 987 Kbps
Encoded date : UTC 2014-01-06 18:10:32
Writing application : mkvmerge v5.8.0 ('No Sleep / Pillow') built on Sep 2 2012 15:37:04
Writing library : libebml v1.2.3 + libmatroska v1.3.0

Video
ID : 1
Format : AVC
Format/Info : Advanced Video Codec
Format profile : High@L4.1
Format settings, CABAC : Yes
Format settings, ReFrames : 8 frames
Codec ID : V_MPEG4/ISO/AVC
Duration : 2h 19mn
Bit rate : 6 323 Kbps
Width : 1 280 pixels
Height : 720 pixels
Display aspect ratio : 16:9
Frame rate mode : Constant
Frame rate : 23.976 fps
Color space : YUV
Chroma subsampling : 4:2:0
Bit depth : 8 bits
Scan type : Progressive
Bits/(Pixel*Frame) : 0.286
Stream size : 5.99 GiB (77%)
Writing library : x264 core 140 r2377 1ca7bb9
Encoding settings : cabac=1 / ref=8 / deblock=1:-2:-2 / analyse=0x3:0x133 / me=tesa / subme=11 / psy=1 / psy_rd=1.00:0.00 / mixed_ref=1 / me_range=32 / chroma_me=1 / trellis=2 / 8x8dct=1 / cqm=0 / deadzone=21,11 / fast_pskip=0 / chroma_qp_offset=-2 / threads=12 / lookahead_threads=3 / sliced_threads=0 / nr=0 / decimate=0 / interlaced=0 / bluray_compat=0 / constrained_intra=0 / bframes=10 / b_pyramid=2 / b_adapt=2 / b_bias=0 / direct=3 / weightb=0 / open_gop=0 / weightp=2 / keyint=240 / keyint_min=23 / scenecut=40 / intra_refresh=0 / rc=2pass / mbtree=0 / bitrate=6323 / ratetol=1.0 / qcomp=0.60 / qpmin=0 / qpmax=69 / qpstep=4 / cplxblur=20.0 / qblur=0.5 / ip_ratio=1.40 / pb_ratio=1.30 / aq=1:1.00
Language : English
Default : Yes
Forced : No

Audio #1
ID : 2
Format : AC-3
Format/Info : Audio Coding 3
Mode extension : CM (complete main)
Format settings, Endianness : Big
Codec ID : A_AC3
Duration : 2h 19mn
Bit rate mode : Constant
Bit rate : 384 Kbps
Channel count : 6 channels
Channel positions : Front: L C R, Side: L R, LFE
Sampling rate : 48.0 KHz
Bit depth : 16 bits
Compression mode : Lossy
Stream size : 382 MiB (5%)
Title : Дубляж, R5
Language : Russian
Default : Yes
Forced : No

Audio #2
ID : 3
Format : AC-3
Format/Info : Audio Coding 3
Mode extension : CM (complete main)
Format settings, Endianness : Big
Codec ID : A_AC3
Duration : 2h 19mn
Bit rate mode : Constant
Bit rate : 640 Kbps
Channel count : 6 channels
Channel positions : Front: L C R, Side: L R, LFE
Sampling rate : 48.0 KHz
Bit depth : 16 bits
Compression mode : Lossy
Stream size : 637 MiB (8%)
Title : Авторский, С. Визгунов
Language : Russian
Default : No
Forced : No

Audio #3
ID : 4
Format : AC-3
Format/Info : Audio Coding 3
Mode extension : CM (complete main)
Format settings, Endianness : Big
Codec ID : A_AC3
Duration : 2h 19mn
Bit rate mode : Constant
Bit rate : 640 Kbps
Channel count : 6 channels
Channel positions : Front: L C R, Side: L R, LFE
Sampling rate : 48.0 KHz
Bit depth : 16 bits
Compression mode : Lossy
Stream size : 637 MiB (8%)
Title : Оригинал, Английский
Language : English
Default : No
Forced : No

Text #1
ID : 5
Format : UTF-8
Codec ID : S_TEXT/UTF8
Codec ID/Info : UTF-8 Plain Text
Language : Russian
Default : No
Forced : No

Text #2
ID : 6
Format : UTF-8
Codec ID : S_TEXT/UTF8
Codec ID/Info : UTF-8 Plain Text
Title : SDH
Language : English
Default : No
Forced : No

Menu
00:00:00.000 : en:Borrowed Jacket
00:07:59.612 : en:Partners in Disguise
00:10:09.241 : en:Coincidence
00:14:21.160 : en:Three Talents of Tom Ripley
00:18:20.399 : en:"Bird"
00:22:19.971 : en:Double Agent
00:29:11.249 : en:Mysterious Mr. Ripley
00:32:46.097 : en:Sightseeing
00:37:39.390 : en:A Corduroy Jacket in Italy
00:43:09.386 : en:Festival of Madonna
00:47:52.569 : en:Confession
00:52:37.854 : en:San Remo
00:58:50.593 : en:Apology
01:03:44.554 : en:New Beginning
01:09:03.706 : en:Evening at the Opera
01:15:44.907 : en:Chance Meeting
01:19:51.019 : en:So Bourgeois
01:27:45.994 : en:Police Inquiry
01:29:51.652 : en:Tom's Return
01:38:17.758 : en:Dickie's Letter
01:40:28.122 : en:Friendship
01:48:16.289 : en:Suspicion
01:59:28.327 : en:Silent Promise
02:05:09.869 : en:A Fake Somebody, a Real Nobody
02:14:02.034 : en:End Credits
02:19:05.337 : en:
загрузка...
Правила, инструкции, FAQ!!!
Торрент  Добавлен [02 фев 2014, 11:49] Скачать торрент
Скачать торрент
[ Размер 19.94 КБ / Просмотров 6 ]

Статус  
 
Размер  7.76 ГБ
Приватный: Нет (DHT включён)
.torrent скачан  0
Как залить торрент? | Как скачать Torrent? | Как смотреть и слушать онлайн?  


     Отправить личное сообщение
   
Страница 1 из 1
Показать сообщения за:  Поле сортировки  
Начать новую тему Ответить на тему

   Похожие торренты   Автор   Ответы   Просмотры   Последнее сообщение 
В этой теме нет новых непрочитанных сообщений. Скачать торрент Талантливый мистер Рипли / The Talented mr. Ripley (1999) BDRip | D

в форуме Триллеры, Размер: 1.99 ГБ, Здоровье: 0%

Anonymous

0
0|0

34
1

02 фев 2014, 11:54

Anonymous Перейти к последнему сообщению

В этой теме нет новых непрочитанных сообщений. Скачать торрент Проверен [iPhone] Талантливый мистер Рипли / The Talented Mr. Ripley (Энтони Мингелла/ Anthony Minghella) [1999 г., Триллер, Драма, Криминал][Rus/Eng, Sub,+ Dub + Eng/ оригинал., BDRip - AVC., 576x320]

в форуме Фильмы для iPod, iPhone, iPad, Размер: 1.19 ГБ, Здоровье: 100%

Гость

0
10|3

68
1

11 май 2015, 01:38

Гость Перейти к последнему сообщению

В этой теме нет новых непрочитанных сообщений. Скачать торрент Проверен Хайсмит Патриция - Талантливый мистер Рипли [Телегина Татьяна, 2009 г., 96 kbps, MP3]

в форуме Детектив и Боевики, Размер: 504.04 МБ, Здоровье: 0%

Anonymous

0
0|0

1
0

20 ноя 2016, 17:16

Anonymous Перейти к последнему сообщению

В этой теме нет новых непрочитанных сообщений. Скачать торрент Проверен Александра Рипли (Александра Риплей) / Alexandra Ripley - Собрание сочинений - 4 произведения [1993-1995, DOC, FB2, RUS]

в форуме Женский роман, Размер: 41.84 МБ, Здоровье: 100%

Anonymous

0
7|2

8
0

28 авг 2016, 20:40

Anonymous Перейти к последнему сообщению

В этой теме нет новых непрочитанных сообщений. Скачать торрент Мистер пип / Mr. Pip (2012) BDRip 720p | L

в форуме 720p | 1080p, Размер: 5.85 ГБ, Здоровье: 100%

Anonymous

0
11|1

20
205

14 апр 2014, 21:06

Anonymous Перейти к последнему сообщению



Сейчас этот форум просматривают: нет зарегистрированных пользователей и гости: 1


Вы не можете начинать темы
Вы не можете отвечать на сообщения
Вы не можете редактировать свои сообщения
Вы не можете удалять свои сообщения
Вы не можете добавлять вложения

Перейти:  

!ВНИМАНИЕ!
 Ресурс не предоставляет электронные версии произведений, а занимается лишь коллекционированием и каталогизацией ссылок, присылаемых и публикуемых на форуме нашими читателями. Если вы являетесь правообладателем какого-либо представленного материала и не желаете чтобы ссылка на него находилась в нашем каталоге, свяжитесь с нами и мы незамедлительно удалим её. Файлы для обмена на трекере предоставлены пользователями сайта, и администрация не несёт ответственности за их содержание. Просьба не заливать файлы, защищенные авторскими правами, а также файлы нелегального содержания!