На всех торрентах на трекере установлена скидка на скачивание в размере 100 процентов(а).
 Возможность скачивания торрента НЕ зависит от ограничений при низком ратио, низком аплоаде, требуемом ратио или требуемом аплоаде.


Начать новую тему Ответить на тему
Статистика раздачи
Размер: 4.37 ГБ | Добавлен: 02 фев 2014, 08:36 | Скачали: 0
Сидеров: 0  [0 байт/сек]    Личеров: 0  [0 байт/сек]
Пред. тема | След. тема 

Автор
Сообщение

СообщениеДобавлено: 02 фев 2014, 08:36 

Страна: США
Жанр: драма, криминал, биография
Год выпуска: 1975
Продолжительность: 01:41:18


Перевод: Профессиональный (многоголосый, закадровый) + Оригинальный
Субтитры: русские, английские


Режиссер: Стив Карвер / Steve Carver


В ролях: Бен Газзара (Al Capone), Гарри Гуардино (Johnny Torrio), Сьюзан Блейкли (Iris Crawford), Сильвестр Сталлоне (Frank Nitti), Джон Кассаветис (Frankie Yale), Фрэнк Кампанелла (Big Jim Colosimo), Джон Орхард (Dion O'Banion), Кармен Ардженциано (Jack McGurn), Джордж Чандлер (Robert E. Crowe), Джон Дэвис Чэндлер (Hymie Weiss), Ройал Дэно (Anton J. Cermak), Джо Де Николя (Charles Fischetti)


Вкратце: В 1918 году крупнейшим мафиози был Торрио. Он учил Капоне общаться с политиками, судьями и адвокатами, учил его красиво говорить, одеваться и правильно вести себя в высшем обществе, чтобы никто не мог заподозрить, что он - из шпаны. Постепенно Капоне приспособился к своим новым обязанностям и стал правой рукой Торрио. В городе учащались вооруженные мафиозные разборки. Соперники Торрио вынуждали его поделиться бизнесом. Капоне не мог с этим смириться и, понимая, что босса не переубедить, решил убить его и возглавить его мафиозную организацию.




MPAA: R - Лицам до 17 лет обязательно присутствие взрослого


Семпл


Качество: BDRip
Контейнер: MKV

Видео: AVC, 1280x692 (1.850), 5538 kbps, 23,976 fps, 0,261 bpp
Аудио №1: русский / AC3 / 5.1 / 48 kHz / 448 kbps
Аудио №2: английский / AC3 / 2.0 / 48 kHz / 192 kbps
Навигация по главам: есть



Format : Matroska
Format version : Version 2
File size : 4.37 GiB
Duration : 1h 41mn
Overall bit rate : 6 180 Kbps
Movie name : = Капоне / Capone BDRip 720p by SC Kosmos =
Encoded date : UTC 2014-02-01 23:35:53
Writing application : mkvmerge v3.3.0 ('Language') gebaut am Mar 24 2010 14:59:24
Writing library : libebml v0.8.0 + libmatroska v0.9.0

Video
ID : 1
Format : AVC
Format/Info : Advanced Video Codec
Format profile : High@L4.1
Format settings, CABAC : Yes
Format settings, ReFrames : 9 frames
Codec ID : V_MPEG4/ISO/AVC
Duration : 1h 41mn
Bit rate : 5 538 Kbps
Width : 1 280 pixels
Height : 692 pixels
Display aspect ratio : 1.850
Frame rate : 23.976 fps
Color space : YUV
Chroma subsampling : 4:2:0
Bit depth : 8 bits
Scan type : Progressive
Bits/(Pixel*Frame) : 0.261
Stream size : 3.83 GiB (88%)
Title : Капоне / Capone BDRip 720p by SC Kosmos
Writing library : x264 core 142 r2389 956c8d8
Encoding settings : cabac=1 / ref=9 / deblock=1:-2:-2 / analyse=0x3:0x113 / me=umh / subme=11 / psy=1 / psy_rd=1.00:0.00 / mixed_ref=1 / me_range=32 / chroma_me=1 / trellis=2 / 8x8dct=1 / cqm=0 / deadzone=21,11 / fast_pskip=0 / chroma_qp_offset=-2 / threads=12 / lookahead_threads=1 / sliced_threads=0 / nr=0 / decimate=1 / interlaced=0 / bluray_compat=0 / constrained_intra=0 / bframes=12 / b_pyramid=2 / b_adapt=1 / b_bias=0 / direct=1 / weightb=1 / open_gop=0 / weightp=2 / keyint=240 / keyint_min=23 / scenecut=40 / intra_refresh=0 / rc_lookahead=40 / rc=2pass / mbtree=0 / bitrate=5538 / ratetol=1.0 / qcomp=0.60 / qpmin=0 / qpmax=69 / qpstep=4 / cplxblur=20.0 / qblur=0.5 / vbv_maxrate=50000 / vbv_bufsize=50000 / nal_hrd=none / filler=0 / ip_ratio=1.40 / pb_ratio=1.30 / aq=1:1.00
Language : English
Default : No
Forced : No

Audio #1
ID : 2
Format : AC-3
Format/Info : Audio Coding 3
Mode extension : CM (complete main)
Codec ID : A_AC3
Duration : 1h 41mn
Bit rate mode : Constant
Bit rate : 448 Kbps
Channel(s) : 6 channels
Channel positions : Front: L C R, Side: L R, LFE
Sampling rate : 48.0 KHz
Bit depth : 16 bits
Compression mode : Lossy
Stream size : 325 MiB (7%)
Title : MVO
Language : Russian
Default : Yes
Forced : No

Audio #2
ID : 3
Format : AC-3
Format/Info : Audio Coding 3
Mode extension : CM (complete main)
Codec ID : A_AC3
Duration : 1h 41mn
Bit rate mode : Constant
Bit rate : 192 Kbps
Channel(s) : 2 channels
Channel positions : Front: L R
Sampling rate : 48.0 KHz
Bit depth : 16 bits
Compression mode : Lossy
Stream size : 139 MiB (3%)
Language : English
Default : No
Forced : No

Text #1
ID : 4
Format : ASS
Codec ID : S_TEXT/ASS
Codec ID/Info : Advanced Sub Station Alpha
Compression mode : Lossless
Language : Russian
Default : No
Forced : No

Text #2
ID : 5
Format : ASS
Codec ID : S_TEXT/ASS
Codec ID/Info : Advanced Sub Station Alpha
Compression mode : Lossless
Language : English
Default : No
Forced : No

Menu
00:00:00.000 : en:00:00:00.000
00:02:38.408 : en:00:02:38.408
00:05:24.074 : en:00:05:24.074
00:09:03.501 : en:00:09:03.501
00:16:11.596 : en:00:16:11.596
00:17:51.654 : en:00:17:51.654
00:21:11.312 : en:00:21:11.312
00:23:54.850 : en:00:23:54.850
00:30:51.516 : en:00:30:51.516
00:35:14.779 : en:00:35:14.779
00:41:25.983 : en:00:41:25.983
00:45:45.785 : en:00:45:45.785
00:48:04.423 : en:00:48:04.423
00:50:31.237 : en:00:50:31.237
00:53:21.156 : en:00:53:21.156
00:56:48.530 : en:00:56:48.530
01:00:32.420 : en:01:00:32.420
01:05:12.951 : en:01:05:12.951
01:07:42.809 : en:01:07:42.809
01:14:06.984 : en:01:14:06.984
01:16:56.320 : en:01:16:56.320
01:21:51.573 : en:01:21:51.573
01:26:33.105 : en:01:26:33.105
01:31:03.416 : en:01:31:03.416
01:33:33.983 : en:01:33:33.983
01:35:30.767 : en:01:35:30.767
01:38:32.031 : en:01:38:32.031
01:39:59.994 : en:01:39:59.994






загрузка...
Правила, инструкции, FAQ!!!
Торрент  Добавлен [02 фев 2014, 08:36] Скачать торрент
Скачать торрент
[ Размер 22.27 КБ / Просмотров 4 ]

Статус  
 
Размер  4.37 ГБ
Приватный: Нет (DHT включён)
.torrent скачан  0
Как залить торрент? | Как скачать Torrent? | Как смотреть и слушать онлайн?  


     Отправить личное сообщение
   
Страница 1 из 1
Показать сообщения за:  Поле сортировки  
Начать новую тему Ответить на тему

   Похожие торренты   Автор   Ответы   Просмотры   Последнее сообщение 
В этой теме нет новых непрочитанных сообщений. Скачать торрент Афоня (1975) BDRip 720p

в форуме Драмы, Мелодрамы, Размер: 4.91 ГБ, Здоровье: 100%

Anonymous

0
2|0

105
2

11 дек 2013, 18:49

Anonymous Перейти к последнему сообщению

В этой теме нет новых непрочитанных сообщений. Скачать торрент Сильвестр Сталлоне (1975-2013) BDRip [720p] [Фильмография]

в форуме Антологии, Размер: 241.71 ГБ, Здоровье: ???%

Anonymous

0
0|5

275
0

17 фев 2014, 16:03

Anonymous Перейти к последнему сообщению

В этой теме нет новых непрочитанных сообщений. Скачать торрент Проверен Queen - A Night At The Odeon 1975 [2015, Rock, BDRip 720p]

в форуме Концерты (HD-Video), Размер: 3.2 ГБ, Здоровье: 100%

Anonymous

0
14|4

10
1

23 окт 2016, 18:53

Anonymous Перейти к последнему сообщению

В этой теме нет новых непрочитанных сообщений. Скачать торрент Проверен Афоня (Георгий Данелия) [1975, СССР, Комедия, BDRip 720p]

в форуме Наше кино (HD Video), Размер: 6.82 ГБ, Здоровье: 100%

Anonymous

0
46|15

84
0

12 апр 2015, 10:56

Anonymous Перейти к последнему сообщению

В этой теме нет новых непрочитанных сообщений. Скачать торрент Проверен Пролетая над гнездом кукушки / One Flew Over the Cuckoo's Nest (1975) BDRip 720p | P2 | A | D

в форуме 720p | 1080p, Размер: 7.07 ГБ, Здоровье: 100%

Anonymous

0
4|1

49
84

07 сен 2014, 20:49

Anonymous Перейти к последнему сообщению



Сейчас этот форум просматривают: нет зарегистрированных пользователей и гости: 4


Вы не можете начинать темы
Вы не можете отвечать на сообщения
Вы не можете редактировать свои сообщения
Вы не можете удалять свои сообщения
Вы не можете добавлять вложения

Перейти:  

!ВНИМАНИЕ!
 Ресурс не предоставляет электронные версии произведений, а занимается лишь коллекционированием и каталогизацией ссылок, присылаемых и публикуемых на форуме нашими читателями. Если вы являетесь правообладателем какого-либо представленного материала и не желаете чтобы ссылка на него находилась в нашем каталоге, свяжитесь с нами и мы незамедлительно удалим её. Файлы для обмена на трекере предоставлены пользователями сайта, и администрация не несёт ответственности за их содержание. Просьба не заливать файлы, защищенные авторскими правами, а также файлы нелегального содержания!