На всех торрентах на трекере установлена скидка на скачивание в размере 100 процентов(а).
 Возможность скачивания торрента НЕ зависит от ограничений при низком ратио, низком аплоаде, требуемом ратио или требуемом аплоаде.


Начать новую тему Ответить на тему
Статистика раздачи
Размер: 3.88 ГБ | Добавлен: 01 фев 2014, 19:07 | Скачали: 1
Сидеров: 8  [0 байт/сек]    Личеров: 2  [0 байт/сек]
Пред. тема | След. тема 

Автор
Сообщение

СообщениеДобавлено: 01 фев 2014, 19:07 

Год выпуска: 1993
Страна: США
Жанр: фантастика, боевик, триллер, драма, криминал
Продолжительность: 01:44:50
Перевод: Профессиональный (двухголосый), Профессиональный (многоголосый, закадровый), Профессиональный (полное дублирование), Авторский (Живов Юрий)
Cубтитры: русские,аглийские
Навигация по главам: нет

Режиссер: Фред Деккер / Fred Dekker
Сценарий: Эдвард Ноймайер / Edward Neumeier, Майкл Майнер / Michael Miner, Фрэнк Миллер / Frank Miller, Фред Деккер / Fred Dekker
Продюсер: Джейн Бартелм / Jane Bartelme, Патрик Краули / Patrick Crowley, Эндрю Дж. Ла Марка / Andrew G. La Marca
Оператор: Гэри Б. Кибби / Gary B. Kibbe
Композитор: Бэзил Поледурис / Basil Poledouris
В ролях: Роберт Джон Бёрк (RoboCop), Марио Мачадо (Casey Wong), Реми Райан (Nikko), Джоди Лонг (Nikko's Mom), Джон Пози (Nikko's Dad), Рип Торн (The CEO), Мако (Kanemitsu), Джон Кастл (Paul McDaggett), С.Д. Немет (Bixby Snyder), Эдит Айви (Elderly Woman in Bathrobe), Кертис Тейлор (Rehab #1), Си Си Эйч Паундер (Bertha), Джадсон Вон (Seitz), Кен Стронг (Rehab Patrol), Стенли Андерсон (Zack), Стивен Рут (Coontz), Дэниэл фон Барген (Moreno), Кенни Раскин (Security Monitor), Блэйз Корригэн (Officer at Ordinance Depot), Джефф Гарлин (Donut Jerk)
Описание: Могущественная корпорация, создавшая знаменитого Робота-полицейского, разрабатывает грандиозный проект по переустройству Детройта. Но его осуществлению препятствуют жители бедных кварталов, для которых не нашлось места в идеальном городе будущего.
Бесстрашный Робокоп оказывается между двух враждующих лагерей. Как собственность корпорации, он обязан подчиниться несправедливому приказу. Но как человек, Мёрфи должен встать на защиту повстанцев. Разрываясь между жестоким долгом и голосом сердца, Робот-полицейский попадает в самый эпицентр противостояния. Настало время сделать решающий выбор…
Рейтинг:


MPAA: PG-13
Исходник: BDRemux
Качество: BDRip-AVC
Формат: Matroska
Видеокодек: AVC
Аудиокодек: AC3
Видео: 1056x572 (16:9); 2864 Kbps; 23,976 fps; 0,194 bpp
Аудио №1: Russian; AC3; 6ch; 48Hz; CBR; 448 Kbps; Дубляж - Blu-Ray CEE
Аудио №2: English; AC3; 6ch; 48Hz; CBR; 448 Kbps;
Аудио №3: Russian; AC3; 6ch; 48Hz; CBR; 448 Kbps; НТВ
Аудио №4: Russian; AC3; 6ch; 48Hz; CBR; 448 Kbps; Супербит-Киномания
Аудио №5: Russian; AC3; 2ch; 48Hz; CBR; 192 Kbps; СТС - (с TVRip'а)
Аудио №6: Russian; AC3; 4ch; 48Hz; CBR; 448 Kbps; Живов
Субтитры №1: UTF-8; English
Субтитры №2: Russian; UTF-8; Перевод BOBAHC
Субтитры №3: Russian; UTF-8; с Blu-Ray
-> SAMPLE Multi-UP.com<-
-> SAMPLE narod.ru <-

Знаете ли Вы, что...
    Питер Уэллер отказался вновь играть Робота-полицейского из-за съемок в картине Дэвида Кроненберга «Обед нагишом» (1991).
    Фильм был снят в 1991 году, но выпустили его только 5 ноября 1993 года. Причина такой задержки заключается в банкротстве кинокомпании «Orion», занимавшейся дистрибьюцией картины.
  • Съемки проходили в Атланте, где в то время уже начинали готовиться к Олимпийским играм 1996 года. Большинство пустовавших зданий, показанных в фильме, - это дома, подлежащие сносу.
Скриншоты
rip VS source
Rip
Source
Bitrate Viewer
MediaInfo
Код:
Код:
General
Complete name                    : D:\-=tRuAVC=-\Robocop_III.BDRip-AVC.mkv
Format                           : Matroska
File size                        : 3.88 GiB
Duration                         : 1h 44mn
Overall bit rate                 : 5 300 Kbps
Encoded date                     : UTC 2010-12-21 18:16:14
Writing application              : mkvmerge v3.4.0 ('Rapunzel') сборка от May 22 2010 21:59:32
Writing library                  : libebml v0.8.1 + libmatroska v0.9.0
Cover                            : Yes / Yes

Video
ID                               : 1
Format                           : AVC
Format/Info                      : Advanced Video Codec
Format profile                   : High@L4.0
Format settings, CABAC           : Yes
Format settings, ReFrames        : 10 frames
Muxing mode                      : Container profile=Unknown@4.0
Codec ID                         : V_MPEG4/ISO/AVC
Duration                         : 1h 44mn
Bit rate                         : 2 763 Kbps
Width                            : 1 056 pixels
Height                           : 572 pixels
Display aspect ratio             : 16:9
Frame rate                       : 23.976 fps
Color space                      : YUV
Chroma subsampling               : 4:2:0
Bit depth                        : 8 bits
Scan type                        : Progressive
Bits/(Pixel*Frame)               : 0.191
Stream size                      : 2.02 GiB (52%)
Title                            : 1056x572 (16:9); 2864 Kbps; 23,976 fps; 0,194 bpp
Writing library                  : x264 core 112 r1834kMod a51816a
Encoding settings                : cabac=1 / ref=10 / deblock=1:-2:-1 / analyse=0x3:0x113 / me=umh / subme=10 / psy=1 / psy_rd=1.00:0.10 / mixed_ref=1 / me_range=32 / chroma_me=1 / trellis=2 / 8x8dct=1 / cqm=0 / deadzone=21,11 / fast_pskip=1 / chroma_qp_offset=-3 / threads=6 / sliced_threads=0 / nr=0 / decimate=1 / interlaced=0 / constrained_intra=0 / bframes=11 / b_pyramid=2 / b_adapt=2 / b_bias=0 / direct=3 / weightb=1 / open_gop=0 / weightp=2 / keyint=250 / keyint_min=23 / scenecut=40 / intra_refresh=0 / rc=crf / mbtree=0 / crf=20.2000 / qcomp=0.71 / qpmin=0 / qpmax=51 / qpstep=4 / ip_ratio=1.40 / pb_ratio=1.30 / aq=1:1.00 / zones=144191,150812,q=35
Language                         : English
Matrix coefficients              : BT.709-5, BT.1361, IEC 61966-2-4 709, SMPTE RP177

Audio #1
ID                               : 2
Format                           : AC-3
Format/Info                      : Audio Coding 3
Mode extension                   : CM (complete main)
Codec ID                         : A_AC3
Duration                         : 1h 44mn
Bit rate mode                    : Constant
Bit rate                         : 448 Kbps
Channel(s)                       : 6 channels
Channel positions                : Front: L C R, Side: L R, LFE
Sampling rate                    : 48.0 KHz
Bit depth                        : 16 bits
Stream size                      : 336 MiB (8%)
Title                            : Дубляж
Language                         : Russian

Audio #2
ID                               : 3
Format                           : AC-3
Format/Info                      : Audio Coding 3
Mode extension                   : CM (complete main)
Codec ID                         : A_AC3
Duration                         : 1h 44mn
Bit rate mode                    : Constant
Bit rate                         : 448 Kbps
Channel(s)                       : 6 channels
Channel positions                : Front: L C R, Side: L R, LFE
Sampling rate                    : 48.0 KHz
Bit depth                        : 16 bits
Stream size                      : 336 MiB (8%)
Title                            : English
Language                         : English

Audio #3
ID                               : 4
Format                           : AC-3
Format/Info                      : Audio Coding 3
Mode extension                   : CM (complete main)
Codec ID                         : A_AC3
Duration                         : 1h 44mn
Bit rate mode                    : Constant
Bit rate                         : 448 Kbps
Channel(s)                       : 6 channels
Channel positions                : Front: L C R, Side: L R, LFE
Sampling rate                    : 48.0 KHz
Bit depth                        : 16 bits
Stream size                      : 336 MiB (8%)
Title                            : НТВ
Language                         : Russian

Audio #4
ID                               : 5
Format                           : AC-3
Format/Info                      : Audio Coding 3
Mode extension                   : CM (complete main)
Codec ID                         : A_AC3
Duration                         : 1h 44mn
Bit rate mode                    : Constant
Bit rate                         : 448 Kbps
Channel(s)                       : 6 channels
Channel positions                : Front: L C R, Side: L R, LFE
Sampling rate                    : 48.0 KHz
Bit depth                        : 16 bits
Stream size                      : 336 MiB (8%)
Title                            : Супербит-Киномания
Language                         : Russian

Audio #5
ID                               : 6
Format                           : AC-3
Format/Info                      : Audio Coding 3
Mode extension                   : CM (complete main)
Codec ID                         : A_AC3
Duration                         : 1h 44mn
Bit rate mode                    : Constant
Bit rate                         : 192 Kbps
Channel(s)                       : 2 channels
Channel positions                : Front: L R
Sampling rate                    : 48.0 KHz
Bit depth                        : 16 bits
Stream size                      : 144 MiB (4%)
Title                            : СТС
Language                         : Russian

Audio #6
ID                               : 7
Format                           : AC-3
Format/Info                      : Audio Coding 3
Mode extension                   : CM (complete main)
Codec ID                         : A_AC3
Duration                         : 1h 44mn
Bit rate mode                    : Constant
Bit rate                         : 448 Kbps
Channel(s)                       : 4 channels
Channel positions                : Front: L C R, LFE
Sampling rate                    : 48.0 KHz
Bit depth                        : 16 bits
Stream size                      : 336 MiB (8%)
Title                            : Живов
Language                         : Russian

Text #1
ID                               : 8
Format                           : UTF-8
Codec ID                         : S_TEXT/UTF8
Codec ID/Info                    : UTF-8 Plain Text
Title                            : English
Language                         : English

Text #2
ID                               : 9
Format                           : UTF-8
Codec ID                         : S_TEXT/UTF8
Codec ID/Info                    : UTF-8 Plain Text
Title                            : Вованс
Language                         : Russian

Text #3
ID                               : 10
Format                           : UTF-8
Codec ID                         : S_TEXT/UTF8
Codec ID/Info                    : UTF-8 Plain Text
Title                            : Blu-Ray
Language                         : Russian

x264 log
Код:
video.avs: 1056x572, 24000/1001 fps, 150813 frames
y4m [info]: 1056x572p 1:1 @ 24000/1001 fps (cfr)
x264 [info]: using SAR=1/1
x264 [info]: using cpu capabilities: MMX2 SSE2Fast FastShuffle SSEMisalign LZCNT
x264 [info]: profile High, level 4.0
x264 [info]: frame I:1397  Avg QP:19.44  size: 66359  PSNR Mean Y:44.85 U:48.14 V:49.99 Avg:45.83 Global:44.79
x264 [info]: frame P:30014 Avg QP:20.86  size: 28347  PSNR Mean Y:44.40 U:47.84 V:49.87 Avg:45.37 Global:43.34
x264 [info]: frame B:119402 Avg QP:22.80  size: 10960  PSNR Mean Y:42.47 U:46.39 V:48.80 Avg:43.56 Global:42.36
x264 [info]: consecutive B-frames:  1.4%  1.7%  5.2% 14.0% 16.4% 41.7%  7.7%  3.2%  2.7%  2.4%  2.0%  1.5%
x264 [info]: mb I  I16..4:  4.5% 84.4% 11.2%
x264 [info]: mb P  I16..4:  1.1% 17.1%  1.5%  P16..4: 36.8% 24.4% 11.0%  0.0%  0.0%    skip: 8.1%
x264 [info]: mb B  I16..4:  0.1%  1.1%  0.1%  B16..8: 44.5% 12.7%  3.0%  direct: 7.0%  skip:31.6%  L0:46.6% L1:45.6% BI: 7.8%
x264 [info]: 8x8 transform intra:85.9% inter:67.5%
x264 [info]: direct mvs  spatial:100.0% temporal:0.0%
x264 [info]: coded y,uvDC,uvAC intra: 92.8% 86.1% 60.5% inter: 32.5% 29.8% 2.8%
x264 [info]: i16 v,h,dc,p: 58% 17%  5% 19%
x264 [info]: i8 v,h,dc,ddl,ddr,vr,hd,vl,hu:  9%  9%  8% 10% 14% 13% 13% 12% 13%
x264 [info]: i4 v,h,dc,ddl,ddr,vr,hd,vl,hu: 11% 13%  2%  9% 14% 14% 14% 11% 12%
x264 [info]: i8c dc,h,v,p: 42% 24% 18% 16%
x264 [info]: Weighted P-Frames: Y:18.5% UV:11.4%
x264 [info]: ref P L0: 41.8% 12.0% 19.1%  7.0%  6.1%  4.0%  3.8%  2.0%  2.0%  1.7%  0.4%  0.1%
x264 [info]: ref B L0: 64.9% 14.5%  7.6%  4.2%  3.0%  2.6%  2.0%  0.8%  0.3%
x264 [info]: ref B L1: 90.2%  9.8%
x264 [info]: SSIM Mean Y:0.9702141 (15.260db)
x264 [info]: PSNR Mean Y:42.873 U:46.693 V:49.026 Avg:43.945 Global:42.558 kb/s:2864.42
x264 [info]: ended at Tue Dec 21 20:48:38 2010
x264 [info]: encoding duration 9:45:01
======== encoded 150813 frames, 4.30 fps, 2864.42 kb/s ========
загрузка...
Правила, инструкции, FAQ!!!
Торрент  Добавлен [01 фев 2014, 19:07] Скачать торрент
Скачать торрент
[ Размер 19.89 КБ / Просмотров 16 ]

Статус  
 
Размер  3.88 ГБ
Приватный: Нет (DHT включён)
.torrent скачан  1
Как залить торрент? | Как скачать Torrent? | Как смотреть и слушать онлайн?  


     Отправить личное сообщение
   
Страница 1 из 1
Показать сообщения за:  Поле сортировки  
Начать новую тему Ответить на тему

   Похожие торренты   Автор   Ответы   Просмотры   Последнее сообщение 
В этой теме нет новых непрочитанных сообщений. Скачать торрент Робот-полицейский / Robocop (Пол Верховен) [1987 г., фантастика, боевик, триллер, драма, криминал, BD-Remux]

в форуме BD-Remux, Размер: 18.53 ГБ, Здоровье: 100%

Anonymous

0
1|1

196
0

25 фев 2014, 22:42

Anonymous Перейти к последнему сообщению

В этой теме нет новых непрочитанных сообщений. Скачать торрент Беги без оглядки / Running Scared (Уэйн Крамер / Wayne Kramer) [2006, Германия, США, боевик, триллер, драма, криминал, BDRip] Dub + AVO (Немахов) + Original + subs (Rus, Eng)

в форуме Боевики, Размер: 2.51 ГБ, Здоровье: 100%

Anonymous

0
32|10

49
0

11 фев 2014, 09:17

Anonymous Перейти к последнему сообщению

В этой теме нет новых непрочитанных сообщений. Скачать торрент Макс Пэйн / Max Payne (Джон Мур / John Moore) [2008 г., боевик, триллер, драма, криминал, детектив, BDRip] [Unrated] Dub + Mvo (Киномания) + Original + Subs (Rus, Rus Forced, Eng)

в форуме Боевики, Размер: 2.51 ГБ, Здоровье: 100%

Anonymous

0
14|5

88
0

19 фев 2014, 11:40

Anonymous Перейти к последнему сообщению

В этой теме нет новых непрочитанных сообщений. Скачать торрент Телохранитель / London Boulevard (Уильям Монахэн / William Monahan) [2010, США, Великобритания, триллер, драма, криминал, BDRip] DUB + Original (Eng) + Subs (rus,eng)

в форуме Триллеры, Размер: 2.17 ГБ, Здоровье: 0%

Anonymous

0
0|0

65
0

13 фев 2014, 06:34

Anonymous Перейти к последнему сообщению

В этой теме нет новых непрочитанных сообщений. Скачать торрент Без имени / Sin nombre (Кэри Фукунага / Cary Fukunaga) [2009 г., триллер, драма, приключения, криминал, BDRip-AVC] VO + Original + Commentary + Subs (rus, eng)

в форуме 720p | 1080p, Размер: 2.21 ГБ, Здоровье: 100%

Anonymous

0
5|1

25
0

12 фев 2014, 11:45

Anonymous Перейти к последнему сообщению



Сейчас этот форум просматривают: нет зарегистрированных пользователей и гости: 3


Вы не можете начинать темы
Вы не можете отвечать на сообщения
Вы не можете редактировать свои сообщения
Вы не можете удалять свои сообщения
Вы не можете добавлять вложения

Перейти:  

!ВНИМАНИЕ!
 Ресурс не предоставляет электронные версии произведений, а занимается лишь коллекционированием и каталогизацией ссылок, присылаемых и публикуемых на форуме нашими читателями. Если вы являетесь правообладателем какого-либо представленного материала и не желаете чтобы ссылка на него находилась в нашем каталоге, свяжитесь с нами и мы незамедлительно удалим её. Файлы для обмена на трекере предоставлены пользователями сайта, и администрация не несёт ответственности за их содержание. Просьба не заливать файлы, защищенные авторскими правами, а также файлы нелегального содержания!