На всех торрентах на трекере установлена скидка на скачивание в размере 100 процентов(а).
 Возможность скачивания торрента НЕ зависит от ограничений при низком ратио, низком аплоаде, требуемом ратио или требуемом аплоаде.


Начать новую тему Ответить на тему
Пред. тема | След. тема 
Автор
Сообщение

СообщениеДобавлено: 31 янв 2014, 21:43 

Сезон убийц / Killing Season
«Честный поединок один на один»




Страна: США, Бельгия
Студия: Millennium Films
Жанр: триллер, драма, боевик
Год выпуска: 2013
Продолжительность: 01:30:40

Перевод: русский профессиональный (многоголосый, закадровый) [BD RUS]
Оригинальная аудиодорожка: нет
Русские субтитры: нет
Режиссер: Марк Стивен Джонсон / Mark Steven Johnson
В ролях: Джон Траволта, Роберт Де Ниро, Майло Вентимилья, Элизабет Олин, Диана Любенова, Калин Сарменов, Стефан Штерев



История о ветеранах войны в Боснии — американце и сербе, которые, спустя много лет после событий в Европе, устраивают свою личную Третью мировую войну, пытаясь свести счеты.


Тип релиза: BDRip 1080p (исходник: Сезон убийц / Killing Season (2013) Blu-ray 1080p AVC LPCM 5.1 [RUS])
Контейнер: MKV
Видео кодек: x264
Аудио кодек: AC3
Видео: AVC / High@L4.1 / 2 pass / 24,000 fps / 1920x856p (2,25:1) / 6,7 Mbps / 0.170
Аудио: AC3 / 5.1 ch / 640 kbps / Русский MVO, BD RUS
Субтитры: нет
Дополнительно: Сохранены оригинальные чаптеры (главы) как на Blu-ray


Раздача от:














x264 [info]: frame I:1078 Avg QP:14.05 size:133998
x264 [info]: frame P:32190 Avg QP:16.23 size: 61881
x264 [info]: frame B:97300 Avg QP:17.46 size: 24847

Общее
Уникальный идентификатор : 244691246414366595323565418617000651076 (0xB815D1E2566798D38D4F816006C36944)
Полное имя : F:Скачка торрентKilling.Season.2013.BDRip1080p(Killbrain)_[scarabey.org].mkv
Формат : Matroska
Версия формата : Version 2
Размер файла : 4,65 Гбайт
Продолжительность : 1 ч. 30 м.
Общий поток : 7339 Кбит/сек
Название фильма : Killing Season (2013) by Killbrain
Дата кодирования : UTC 2014-01-31 15:28:07
Программа кодирования : mkvmerge v5.8.0 ('No Sleep / Pillow') built on Sep 2 2012 15:37:04
Библиотека кодирования : libebml v1.2.3 + libmatroska v1.3.0

Видео
Идентификатор : 1
Формат : AVC
Формат/Информация : Advanced Video Codec
Профиль формата : High@L4.1
Параметр CABAC формата : Да
Параметр ReFrames формата : 4 кадра
Идентификатор кодека : V_MPEG4/ISO/AVC
Продолжительность : 1 ч. 30 м.
Битрейт : 6700 Кбит/сек
Ширина : 1920 пикселей
Высота : 856 пикселей
Соотношение сторон : 2,25:1
Режим частоты кадров : Постоянный
Частота кадров : 24,000 кадра/сек
Цветовое пространство : YUV
Субдискретизация насыщенности : 4:2:0
Битовая глубина : 8 бит
Тип развёртки : Прогрессивная
Бит/(Пиксели*Кадры) : 0.170
Размер потока : 4,15 Гбайт (89%)
Заголовок : Killing Season (2013)
Библиотека кодирования : x264 core 138 r2358 9e941d1
Настройки программы : cabac=1 / ref=4 / deblock=1:-3:-3 / analyse=0x3:0x113 / me=umh / subme=10 / psy=1 / psy_rd=1.00:0.15 / mixed_ref=1 / me_range=32 / chroma_me=1 / trellis=2 / 8x8dct=1 / cqm=0 / deadzone=21,11 / fast_pskip=0 / chroma_qp_offset=-3 / threads=3 / lookahead_threads=1 / sliced_threads=0 / nr=0 / decimate=0 / interlaced=0 / bluray_compat=0 / constrained_intra=0 / bframes=6 / b_pyramid=2 / b_adapt=2 / b_bias=0 / direct=3 / weightb=1 / open_gop=0 / weightp=2 / keyint=240 / keyint_min=24 / scenecut=40 / intra_refresh=0 / rc_lookahead=60 / rc=2pass / mbtree=0 / bitrate=6700 / ratetol=1.0 / qcomp=0.65 / qpmin=0 / qpmax=69 / qpstep=4 / cplxblur=20.0 / qblur=0.5 / vbv_maxrate=40000 / vbv_bufsize=30000 / nal_hrd=none / ip_ratio=1.40 / pb_ratio=1.30 / aq=1:0.80
Язык : English
Default : Да
Forced : Нет

Аудио
Идентификатор : 2
Формат : AC-3
Формат/Информация : Audio Coding 3
Расширение режима : CM (complete main)
Параметр Endianness формата : Big
Идентификатор кодека : A_AC3
Продолжительность : 1 ч. 30 м.
Вид битрейта : Постоянный
Битрейт : 640 Кбит/сек
Каналы : 6 каналов
Расположение каналов : Front: L C R, Side: L R, LFE
Частота : 48,0 КГц
Битовая глубина : 16 бит
Метод сжатия : С потерями
Размер потока : 415 Мбайт (9%)
Заголовок : AC3 / 5.1 ch / 640 kbps / Русский MVO, BD RUS
Язык : Russian
Default : Да
Forced : Нет

Меню
00:00:00.000 : :Chapter 01
00:00:04.000 : :Chapter 02
00:09:40.916 : :Chapter 03
00:18:35.875 : :Chapter 04
00:31:50.458 : :Chapter 05
00:43:56.916 : :Chapter 06
00:53:31.625 : :Chapter 07
01:09:51.041 : :Chapter 08
01:17:52.250 : :Chapter 09







Удалено по требованию правообладателя


     Отправить личное сообщение
   
Страница 1 из 1
Показать сообщения за:  Поле сортировки  
Начать новую тему Ответить на тему
   Похожие темы   Автор   Ответы   Просмотры   Последнее сообщение 
В этой теме нет новых непрочитанных сообщений. Скачать торрент Проверен Вложения Телепузики / Teletubbies / Сезон: 1,2,3 из 4 / Серии: (1 season 46,47,51 из 90)(2 season 1,9,10,13,14,18-20,23,25,26 из 90)(3 season 1-19,22-26 из 90) [1997-2000, детский телевизионный сериал, SATRip, ENG,ITALY] Энн Вуд Эндрю Давенпорт Original

в форуме Обучающие издания для детей, Размер: 27.93 ГБ, Здоровье: 100%

Anonymous

0
11|4

353
1

28 янв 2015, 00:12

Anonymous Перейти к последнему сообщению

В этой теме нет новых непрочитанных сообщений. Скачать торрент Проверен Вложения Сезон охоты 3Д / Open Season 3D (Роджер Аллерс, Джилл Калтон, Энтони Стаччи / Roger Allers, Jill Culton, Anthony Stacchi) [2006, комедия, приключения, семейный, BDrip 1080p] Anaglyph / Анаглиф

в форуме 3D Мультфильмы, Размер: 6.42 ГБ, Здоровье: 0%

Anonymous

0
0|0

6
0

07 сен 2016, 17:51

Anonymous Перейти к последнему сообщению

В этой теме нет новых непрочитанных сообщений. Скачать торрент Проверен Вложения Сезон охоты в 3Д / Open Season 3D (Роджер Аллерс / Roger Allers, Джилл Калтон / Jill Culton, Энтони Стаччи / Anthony Stacchi) [2006, комедия, приключения, семейный, мультфильм, BDrip, 1080p] OverUnder / Вертикальная стереопара

в форуме 3D Мультфильмы, Размер: 11.13 ГБ, Здоровье: 0%

Anonymous

0
0|0

6
0

07 сен 2016, 17:56

Anonymous Перейти к последнему сообщению

В этой теме нет новых непрочитанных сообщений. Скачать торрент Проверен Вложения (Heavy Metal) Killing Season - Speak No Evil - 2013, MP3, 320 kbps

в форуме Heavy, Power, Progressive (Metal), Размер: 97.86 МБ, Здоровье: 0%

Anonymous

0
0|0

0
0

08 окт 2016, 18:54

Anonymous Перейти к последнему сообщению

В этой теме нет новых непрочитанных сообщений. Скачать торрент Проверен Вложения Сезон охоты 3Д / Open Season 3D (Роджер Аллерс, Джилл Калтон, Энтони Стаччи / Roger Allers, Jill Culton, Anthony Stacchi) [2006, комедия, приключения, семейный, BDRemux 1080p] BD3D

в форуме 3D Мультфильмы, Размер: 24.97 ГБ, Здоровье: 0%

Anonymous

0
0|0

4
0

07 сен 2016, 17:47

Anonymous Перейти к последнему сообщению



Сейчас этот форум просматривают: нет зарегистрированных пользователей и гости: 2


Вы не можете начинать темы
Вы не можете отвечать на сообщения
Вы не можете редактировать свои сообщения
Вы не можете удалять свои сообщения
Вы не можете добавлять вложения

Перейти:  

!ВНИМАНИЕ!
 Ресурс не предоставляет электронные версии произведений, а занимается лишь коллекционированием и каталогизацией ссылок, присылаемых и публикуемых на форуме нашими читателями. Если вы являетесь правообладателем какого-либо представленного материала и не желаете чтобы ссылка на него находилась в нашем каталоге, свяжитесь с нами и мы незамедлительно удалим её. Файлы для обмена на трекере предоставлены пользователями сайта, и администрация не несёт ответственности за их содержание. Просьба не заливать файлы, защищенные авторскими правами, а также файлы нелегального содержания!