На всех торрентах на трекере установлена скидка на скачивание в размере 100 процентов(а).
 Возможность скачивания торрента НЕ зависит от ограничений при низком ратио, низком аплоаде, требуемом ратио или требуемом аплоаде.


Начать новую тему Ответить на тему
Статистика раздачи
Размер: 3.31 ГБ | Добавлен: 31 янв 2014, 18:05 | Скачали: 0
Сидеров: 0  [0 байт/сек]    Личеров: 0  [0 байт/сек]
Пред. тема | След. тема 

Автор
Сообщение

СообщениеДобавлено: 31 янв 2014, 18:05 

Название: 14 клинков
Оригинальное название: Gam yee wai / 14 Blades
Год выхода: 2010
Жанр: Боевик, триллер, драма
Режиссер: Дэниэл Ли

В ролях: Донни Йен, Вэй Чжао, Чун Ву, Кейт Цуй, Чен Зи Хуи, Саммо Хунг, Дамиан Лау

О фильме: Во времена правления династии Мин Император учредил секретную службу безопасности, которая подчинялась только его указам, Цзиньивэй, или Охрана в парчовых халатах. Члены этого органа наделялись самыми широкими полномочиями и действовали исключительно в интересах главы государства. Неподсудны. Безжалостны. Непобедимы. Действие фильма разворачивается на закате династии Мин, когда службой управляли евнухи. В изгнании томится принц Чин, вынашивая план отмщения. На удачу он сумел переманить на свою сторону главного евнуха Цзя Цзин Чжона, и тот отдает императорский приказ главе Цзиньивэй – Чин Лону – схватить Советника Чжао Шэнь Еня и забрать его шкатулку якобы со списком предателей. Да вот беда, там хранилась Императорская печать, символ власти, которую следует оберегать как зеницу ока. И Чин Лон осознал, что его здорово подставили. Избегая ловушек, он пытается выяснить правду, но век члена Цзиньивэя недолог, смерть бежит по пятам, выполнит ли Чин Лон свое последнее задание?



Страна: Гонконг, Китай, Сингапур
Студия: Beijing Fenghua Times Culture Communication, Beijing New Film Association, Beijing ShengShi HuaRei Film Investment & Management Co., China Broadcast International Media, Desen International Media, Donlord Skykee Film Investment
Продолжительность: 01:52:51
Перевод: Профессиональный одноголосый + оригинал


Кодек: MPEG-4 AVC
Качество: BDRip-AVC
Видео: MPEG-4 AVC, 3400 Кбит/с, 1024x440, 23.976 кадр/с
Звук:
Аудио #1: Русский (AC3, 6 ch, 448 Кбит/с) / Профессиональный одноголосый
Аудио #2: Китайский (AC3, 6 ch, 448 Кбит/с)
Субтитры: Русские, английские

Семпл

Общее
Уникальный идентификатор : 178326132199322971244253372562498200570 (0x86285D2124202AE7BBF310A19DB923FA)
Полное имя : D:Мои Рипы14.klinkov.2010.x264.BDRip.AVC.MediaClub.mkv
Формат : Matroska
Версия формата : Version 4 / Version 2
Размер файла : 3,31 Гбайт
Продолжительность : 1 ч. 50 м.
Общий поток : 4298 Кбит/сек
Название фильма : = MediaClub = rip by krakatuq
Дата кодирования : UTC 2014-01-30 22:09:59
Программа кодирования : mkvmerge v6.5.0 ('Isn't she lovely') built on Oct 20 2013 12:50:05
Библиотека кодирования : libebml v1.3.0 + libmatroska v1.4.1

Видео
Идентификатор : 1
Формат : AVC
Формат/Информация : Advanced Video Codec
Профиль формата : High@L4.1
Параметр CABAC формата : Да
Параметр ReFrames формата : 9 кадров
Идентификатор кодека : V_MPEG4/ISO/AVC
Продолжительность : 1 ч. 50 м.
Битрейт : 3400 Кбит/сек
Ширина : 1024 пикселя
Высота : 440 пикселей
Соотношение сторон : 2,35:1
Режим частоты кадров : Постоянный
Частота кадров : 23,976 кадра/сек
Цветовое пространство : YUV
Субдискретизация насыщенности : 4:2:0
Битовая глубина : 8 бит
Тип развёртки : Прогрессивная
Бит/(Пиксели*Кадры) : 0.315
Размер потока : 2,55 Гбайт (77%)
Заголовок : 14.klinkov.2010.x264.BDRip.AVC.MediaClub
Библиотека кодирования : x264 core 130 r2273 b3065e6
Настройки программы : cabac=1 / ref=9 / deblock=1:-2:-2 / analyse=0x3:0x133 / me=umh / subme=11 / psy=1 / psy_rd=1.00:0.15 / mixed_ref=1 / me_range=32 / chroma_me=1 / trellis=2 / 8x8dct=1 / cqm=0 / deadzone=21,11 / fast_pskip=0 / chroma_qp_offset=-3 / threads=3 / lookahead_threads=1 / sliced_threads=0 / nr=0 / decimate=0 / interlaced=0 / bluray_compat=0 / constrained_intra=0 / bframes=8 / b_pyramid=2 / b_adapt=2 / b_bias=0 / direct=3 / weightb=1 / open_gop=0 / weightp=2 / keyint=240 / keyint_min=23 / scenecut=40 / intra_refresh=0 / rc=2pass / mbtree=0 / bitrate=3400 / ratetol=1.0 / qcomp=0.60 / qpmin=0 / qpmax=69 / qpstep=4 / cplxblur=20.0 / qblur=0.5 / ip_ratio=1.40 / pb_ratio=1.30 / aq=1:1.00
Язык : Chinese
Default : Да
Forced : Нет

Аудио #1
Идентификатор : 2
Формат : AC-3
Формат/Информация : Audio Coding 3
Расширение режима : CM (complete main)
Параметр Endianness формата : Big
Идентификатор кодека : A_AC3
Продолжительность : 1 ч. 50 м.
Вид битрейта : Постоянный
Битрейт : 448 Кбит/сек
Каналы : 6 каналов
Расположение каналов : Front: L C R, Side: L R, LFE
Частота : 48,0 КГц
Битовая глубина : 16 бит
Метод сжатия : С потерями
Размер потока : 353 Мбайт (10%)
Заголовок : TRACK_01_VO_RUS
Язык : Russian
Default : Да
Forced : Да

Аудио #2
Идентификатор : 3
Формат : AC-3
Формат/Информация : Audio Coding 3
Расширение режима : CM (complete main)
Параметр Endianness формата : Big
Идентификатор кодека : A_AC3
Продолжительность : 1 ч. 50 м.
Вид битрейта : Постоянный
Битрейт : 448 Кбит/сек
Каналы : 6 каналов
Расположение каналов : Front: L C R, Side: L R, LFE
Частота : 48,0 КГц
Битовая глубина : 16 бит
Метод сжатия : С потерями
Размер потока : 353 Мбайт (10%)
Заголовок : TRACK_02_ORIGINAL_CHI
Default : Нет
Forced : Нет

Текст #1
Идентификатор : 4
Формат : UTF-8
Идентификатор кодека : S_TEXT/UTF8
Идентификатор кодека/Информация : UTF-8 Plain Text
Заголовок : TEXT_01_SUB_RUS
Язык : Russian
Default : Нет
Forced : Нет

Текст #2
Идентификатор : 5
Формат : UTF-8
Идентификатор кодека : S_TEXT/UTF8
Идентификатор кодека/Информация : UTF-8 Plain Text
Заголовок : TEXT_02_SUB_ENG
Язык : English
Default : Нет
Forced : Нет

Меню
00:00:00.000 : en:chapters
00:07:59.020 : en:Chapter 05
00:17:43.479 : en:Chapter 07
00:22:41.109 : en:Chapter 09
00:25:31.613 : en:Chapter 10
00:32:41.125 : en:Chapter 12
00:37:04.972 : en:Chapter 13
00:39:57.853 : en:Chapter 14
00:43:05.958 : en:Chapter 15
00:48:04.923 : en:Chapter 16
00:53:02.053 : en:Chapter 17
00:57:48.381 : en:Chapter 18
01:04:50.928 : en:Chapter 20
01:13:19.311 : en:Chapter 22
01:18:06.848 : en:Chapter 23
01:22:08.048 : en:Chapter 24
01:26:21.426 : en:Chapter 26
01:30:44.355 : en:Chapter 27
01:39:02.227 : en:Chapter 29
01:45:45.922 : en:Chapter 31
01:52:49.888 : en:Chapter 33

x264 [info]: frame I:1468  Avg QP:16.45  size: 81584
x264 [info]: frame P:44217 Avg QP:19.03  size: 31912
x264 [info]: frame B:112804 Avg QP:21.01  size: 11333

• Сохранены оригинальные чаптеры как на Blu-ray.

• За помощь в подготовке релиза спасибо Константину - Painter и Виталию - neni


Релиз от:
Автор рипа:
загрузка...
Правила, инструкции, FAQ!!!
Торрент  Добавлен [31 янв 2014, 18:05] Скачать торрент
Скачать торрент
[ Размер 17.1 КБ / Просмотров 4 ]

Статус  
 
Размер  3.31 ГБ
Приватный: Нет (DHT включён)
.torrent скачан  0
Как залить торрент? | Как скачать Torrent? | Как смотреть и слушать онлайн?  


     Отправить личное сообщение
   
Страница 1 из 1
Показать сообщения за:  Поле сортировки  
Начать новую тему Ответить на тему

   Похожие торренты   Автор   Ответы   Просмотры   Последнее сообщение 
В этой теме нет новых непрочитанных сообщений. Скачать торрент Проверен 14 клинков / Gam yee wai / 14 Blades (2010) BDRip 1080p | P1

в форуме 720p | 1080p, Размер: 11.82 ГБ, Здоровье: 100%

Гость

0
18|5

115
7

08 апр 2016, 19:29

Гость Перейти к последнему сообщению

В этой теме нет новых непрочитанных сообщений. Скачать торрент Проверен Братство клинков / Xiu Chun Dao (2014) BDRip 720p | L 2

в форуме 720p | 1080p, Размер: 6.71 ГБ, Здоровье: 65%

Гость

0
197|299

30
191

27 янв 2015, 17:37

Гость Перейти к последнему сообщению

В этой теме нет новых непрочитанных сообщений. Скачать торрент Проверен (Melodic Rock | AOR) Jack Blades - Jack Blades - 2004, MP3, 320 kbps

в форуме AOR (Melodic Hard Rock, Arena rock), Размер: 104.04 МБ, Здоровье: 0%

Anonymous

0
0|0

2
0

08 окт 2016, 01:20

Anonymous Перейти к последнему сообщению

В этой теме нет новых непрочитанных сообщений. Скачать торрент Проверен Frederick Sh., Ramsay C., Blades S., White N. - Learning Ext JS 3.2 [2010, PDF, ENG]

в форуме Веб-дизайн и программирование, Размер: 10.77 МБ, Здоровье: 0%

Anonymous

0
0|0

2
0

22 окт 2016, 09:35

Anonymous Перейти к последнему сообщению

В этой теме нет новых непрочитанных сообщений. Скачать торрент Проверен (Deep House) [24\96] Alex Niggemann, Rio Padice ‎– Samurai Blades EP - Vinyl Sampler - 2010, FLAC (tracks)

в форуме Электронная музыка (оцифровки), Размер: 299.44 МБ, Здоровье: 0%

Anonymous

0
0|0

3
0

15 сен 2016, 17:45

Anonymous Перейти к последнему сообщению



Сейчас этот форум просматривают: нет зарегистрированных пользователей и гости: 1


Вы не можете начинать темы
Вы не можете отвечать на сообщения
Вы не можете редактировать свои сообщения
Вы не можете удалять свои сообщения
Вы не можете добавлять вложения

Перейти:  

!ВНИМАНИЕ!
 Ресурс не предоставляет электронные версии произведений, а занимается лишь коллекционированием и каталогизацией ссылок, присылаемых и публикуемых на форуме нашими читателями. Если вы являетесь правообладателем какого-либо представленного материала и не желаете чтобы ссылка на него находилась в нашем каталоге, свяжитесь с нами и мы незамедлительно удалим её. Файлы для обмена на трекере предоставлены пользователями сайта, и администрация не несёт ответственности за их содержание. Просьба не заливать файлы, защищенные авторскими правами, а также файлы нелегального содержания!