На всех торрентах на трекере установлена скидка на скачивание в размере 100 процентов(а).
 Возможность скачивания торрента НЕ зависит от ограничений при низком ратио, низком аплоаде, требуемом ратио или требуемом аплоаде.


Начать новую тему Ответить на тему
Статистика раздачи
Размер: 4.62 ГБ | Добавлен: 29 янв 2014, 20:48 | Скачали: 0
Сидеров: 0  [0 байт/сек]    Личеров: 0  [0 байт/сек]
Пред. тема | След. тема 

Автор
Сообщение

СообщениеДобавлено: 29 янв 2014, 20:48 

Название: Страна чудес
Оригинальное название: Eventyrland
Год выхода: 2013
Жанр: криминальная драма
Режиссер: Ариль Остин Оммундсен

В ролях: Силье Саломонсен, Томас Альф Ларсен, Эгиль Биркеланд, Вегар Хоел, Фредерик Хана, Оле Ромсдаль, Ибен Остин, Кель Брейвик, Торе Квам, Ленэ Ларсен

Вкратце:
Фильм «Страна чудес» – это история убийства, которое никогда не должно было случиться, рассказ о друзьях, которым нельзя доверять, и о долге, который лишь увеличивается после каждого нового взноса. В том мире, где Дженни потеряла все, она до сих пор надеется быть со своей дочерью.

Будучи беременной, Дженни попала в тюрьму за убийство. Теперь, отсидев десять лет, она возвращается к нормальной жизни. Она мечтает стать хорошей матерью своей девочке, которая все эти годы росла без нее, и надеется жить спокойной жизнью. Но темные тени из прошлого Дженни вскоре появляются вновь…



Выпущено: Норвегия
Продолжительность: 01:32:48
Озвучивание: Любительское (одноголосое) [ViruseProject - Александр Харченко]


Формат: MKV
Качество: BDRip 720p [FiHViD]
Видео: 5233 kb/s, 1280x720
Аудио: Russian: AC3, 384 kb/s (6 ch) / Norwegian: DTS, 1510 kb/s (6 ch)
Субтитры: Russian [kitmur], English


Скачать: Сэмпл

Релиз группы:




Общее
Eventyrland.2013.Blu.Ray.720p.CINEMANIA.mkv
Формат : Matroska
Версия формата : Version 4 / Version 2
Размер файла : 4,62 Гбайт
Продолжительность : 1 ч. 32 м.
Общий поток : 7131 Кбит/сек
Название фильма : Release Group CINEMANIA
Дата кодирования : UTC 2014-01-29 13:49:22
Программа кодирования : mkvmerge v6.7.0 ('Back to the Ground') 64bit built on Jan 8 2014 15:10:52
Библиотека кодирования : libebml v1.3.0 + libmatroska v1.4.1

Видео
Идентификатор : 1
Формат : AVC
Формат/Информация : Advanced Video Codec
Профиль формата : High@L4.1
Параметр CABAC формата : Да
Параметр ReFrames формата : 5 кадров
Идентификатор кодека : V_MPEG4/ISO/AVC
Продолжительность : 1 ч. 32 м.
Битрейт : 5233 Кбит/сек
Ширина : 1280 пикселей
Высота : 720 пикселей
Соотношение сторон : 16:9
Режим частоты кадров : Постоянный
Частота кадров : 24,000 кадра/сек
Цветовое пространство : YUV
Субдискретизация насыщенности : 4:2:0
Битовая глубина : 8 бит
Тип развёртки : Прогрессивная
Бит/(Пиксели*Кадры) : 0.237
Размер потока : 3,30 Гбайт (71%)
Заголовок : Release Group CINEMANIA
Библиотека кодирования : x264 core 133 r2334 a3ac64b
Настройки программы : cabac=1 / ref=5 / deblock=1:0:0 / analyse=0x3:0x133 / me=umh / subme=7 / psy=1 / psy_rd=1.00:0.00 / mixed_ref=1 / me_range=16 / chroma_me=1 / trellis=1 / 8x8dct=1 / cqm=0 / deadzone=21,11 / fast_pskip=0 / chroma_qp_offset=-2 / threads=6 / lookahead_threads=1 / sliced_threads=0 / nr=0 / decimate=1 / interlaced=0 / bluray_compat=0 / constrained_intra=0 / bframes=3 / b_pyramid=2 / b_adapt=2 / b_bias=0 / direct=3 / weightb=1 / open_gop=0 / weightp=2 / keyint=250 / keyint_min=24 / scenecut=40 / intra_refresh=0 / rc_lookahead=50 / rc=2pass / mbtree=1 / bitrate=5233 / ratetol=1.0 / qcomp=0.60 / qpmin=0 / qpmax=69 / qpstep=4 / cplxblur=20.0 / qblur=0.5 / ip_ratio=1.40 / aq=1:1.00
Язык : English
Default : Да
Forced : Нет

Аудио #1
Идентификатор : 2
Формат : AC-3
Формат/Информация : Audio Coding 3
Расширение режима : CM (complete main)
Параметр Endianness формата : Big
Идентификатор кодека : A_AC3
Продолжительность : 1 ч. 32 м.
Вид битрейта : Постоянный
Битрейт : 384 Кбит/сек
Каналы : 6 каналов
Расположение каналов : Front: L C R, Side: L R, LFE
Частота : 48,0 КГц
Битовая глубина : 16 бит
Метод сжатия : С потерями
Размер потока : 255 Мбайт (5%)
Заголовок : [ViruseProject - Александр Харченко]
Язык : Russian
Default : Да
Forced : Да

Аудио #2
Идентификатор : 3
Формат : DTS
Формат/Информация : Digital Theater Systems
Режим : 16
Параметр Endianness формата : Big
Идентификатор кодека : A_DTS
Продолжительность : 1 ч. 32 м.
Вид битрейта : Постоянный
Битрейт : 1509 Кбит/сек
Каналы : 6 каналов
Расположение каналов : Front: L C R, Side: L R, LFE
Частота : 48,0 КГц
Битовая глубина : 24 бит
Метод сжатия : С потерями
Размер потока : 1002 Мбайт (21%)
Язык : Norwegian
Default : Нет
Forced : Нет

Текст #1
Идентификатор : 4
Формат : UTF-8
Идентификатор кодека : S_TEXT/UTF8
Идентификатор кодека/Информация : UTF-8 Plain Text
Заголовок : kitmur
Язык : Russian
Default : Нет
Forced : Нет

Текст #2
Идентификатор : 5
Формат : UTF-8
Идентификатор кодека : S_TEXT/UTF8
Идентификатор кодека/Информация : UTF-8 Plain Text
Язык : English
Default : Нет
Forced : Нет
загрузка...
Правила, инструкции, FAQ!!!
Торрент  Добавлен [29 янв 2014, 20:48] Скачать торрент
Скачать торрент
[ Размер 23.59 КБ / Просмотров 7 ]

Статус  
 
Размер  4.62 ГБ
Приватный: Нет (DHT включён)
.torrent скачан  0
Как залить торрент? | Как скачать Torrent? | Как смотреть и слушать онлайн?  


     Отправить личное сообщение
   
Страница 1 из 1
Показать сообщения за:  Поле сортировки  
Начать новую тему Ответить на тему

   Похожие торренты   Автор   Ответы   Просмотры   Последнее сообщение 
В этой теме нет новых непрочитанных сообщений. Скачать торрент Проверен Мураками Харуки – Страна Чудес без тормозов и Конец Света [Князев Игорь, 2013 г., 160 kbps, MP3]

в форуме Зарубежная фантастика, фэнтези, мистика, ужасы, Размер: 1.13 ГБ, Здоровье: 100%

Anonymous

0
34|11

3
0

11 сен 2016, 16:50

Anonymous Перейти к последнему сообщению

В этой теме нет новых непрочитанных сообщений. Скачать торрент Проверен Мураками Харуки - Страна Чудес без тормозов и Конец Света [Князев Игорь, 2013, Современная проза, 128 kbps]

в форуме Аудиокниги (AAC, ALAC), Размер: 746.46 МБ, Здоровье: 0%

Anonymous

0
0|0

6
0

28 авг 2016, 17:49

Anonymous Перейти к последнему сообщению

В этой теме нет новых непрочитанных сообщений. Скачать торрент Проверен (Rock, HardRock) Клиника - Страна чудес - 1992, MP3 , 192 kbps

в форуме Русский Рок, Размер: 60.12 МБ, Здоровье: 0%

Anonymous

0
0|0

3
0

22 авг 2016, 13:40

Anonymous Перейти к последнему сообщению

В этой теме нет новых непрочитанных сообщений. Скачать торрент Проверен Сара Мэйр Кокс - Страна чудес Роберта Ингпена [2012, PDF, RUS]

в форуме Рисунок, графический дизайн, Размер: 52.51 МБ, Здоровье: 100%

Anonymous

0
17|5

11
1

27 янв 2016, 22:15

Anonymous Перейти к последнему сообщению

В этой теме нет новых непрочитанных сообщений. Скачать торрент Проверен Харуки Мураками - Страна чудес без тормозов и конец света [Ирина Ерисанова, 2005, Роман, 57 kbps]

в форуме Аудиокниги (AAC, ALAC), Размер: 399.82 МБ, Здоровье: 0%

Anonymous

0
0|0

6
1

28 авг 2016, 16:45

Anonymous Перейти к последнему сообщению



Сейчас этот форум просматривают: нет зарегистрированных пользователей и гости: 3


Вы не можете начинать темы
Вы не можете отвечать на сообщения
Вы не можете редактировать свои сообщения
Вы не можете удалять свои сообщения
Вы не можете добавлять вложения

Перейти:  

!ВНИМАНИЕ!
 Ресурс не предоставляет электронные версии произведений, а занимается лишь коллекционированием и каталогизацией ссылок, присылаемых и публикуемых на форуме нашими читателями. Если вы являетесь правообладателем какого-либо представленного материала и не желаете чтобы ссылка на него находилась в нашем каталоге, свяжитесь с нами и мы незамедлительно удалим её. Файлы для обмена на трекере предоставлены пользователями сайта, и администрация не несёт ответственности за их содержание. Просьба не заливать файлы, защищенные авторскими правами, а также файлы нелегального содержания!