На всех торрентах на трекере установлена скидка на скачивание в размере 100 процентов(а).
 Возможность скачивания торрента НЕ зависит от ограничений при низком ратио, низком аплоаде, требуемом ратио или требуемом аплоаде.


Начать новую тему Ответить на тему
Статистика раздачи
Размер: 11.55 ГБ | Добавлен: 29 янв 2014, 20:10 | Скачали: 2
Сидеров: 28  [0 байт/сек]    Личеров: 3  [0 байт/сек]
Пред. тема | След. тема 

Автор
Сообщение

СообщениеДобавлено: 29 янв 2014, 20:10 

Название: Схватка
Оригинальное название: Heat
Год выхода: 1995
Жанр: боевик, триллер, драма, криминал
Режиссер: Майкл Манн / Michael Mann

В ролях: Аль Пачино / Al Pacino, Роберт Де Ниро / Robert De Niro, Вэл Килмер / Val Kilmer, Том Сайзмор / Tom Sizemore, Дайэн Венора / Diane Venora, Эми Бреннемэн / Amy Brenneman, Деннис Хэйсберт / Dennis Haysbert, Эшли Джадд / Ashley Judd, Микелти Уильямсон / Mykelti Williamson, Уэс Стьюди / Wes Studi, Тед Ливайн / Ted Levine, Уильям Фихтнер / William Fichtner, Натали Портман / Natalie Portman, Том Нунэн / Tom Noonan

Вкратце:
Нил МакКоли — преступник. Один из лучших, если можно так сказать о преступнике, в Лос-Анджелесе, а быть может, и во всей Америке. И работать с ним вместе почитают за честь супер-профессионалы криминального мира. Но против него выступает Винсент Ханна. Детектив. Один из лучших в Лос-Анджелесе, а быть может, и во всей Америке. У Винсента и Нила очень много общего. Вероятно, общего у них даже больше, чем отличий. Однако они все же стоят по разные стороны закона. Две сильнейшие команды сошлись друг против друга. Только речь идет не о спортивном состязании, а о схватке не на жизнь, а на смерть…



Выпущено: США
Продолжительность: 02:50:27
Перевод: Профессиональный (многоголосый, закадровый)[Twister] + Профессиональный (многоголосый, закадровый)[Gemini] + Авторский одноголосый [Андрей Гаврилов] + Оригинал


Кодек: x264
Качество: BDRip 1080p
Видео: 1920x800, 7140 Kbps, 23.976 fps
Аудио #1: AC-3, 6 ch, 640 kbps (Rus)|Многоголосый закадровый, Twister|
Аудио #2: AC-3, 6 ch, 640 kbps (Rus)|Многоголосый закадровый, Gemini|
Аудио #3: AC-3, 6 ch, 640 kbps (Rus)|Одноголосый закадровый, А. Гаврилов|
Аудио #4: AC-3, 6 ch, 640 kbps (Eng)
Субтитры: русские(Twister, Gemini), английские

Общее
Уникальный идентификатор : 239165163777739459463466783041585735432 (0xB3ED88F98547B665BAFACDC296A0E708)
Полное имя : Схватка.1995.BDRip.1080p.Rus.Eng.mkv
Формат : Matroska
Версия формата : Version 2
Размер файла : 11,5 Гбайт
Продолжительность : 2 ч. 50 м.
Общий поток : 9700 Кбит/сек
Название фильма : Схватка.1995
Дата кодирования : UTC 2014-01-29 15:23:50
Программа кодирования : mkvmerge v5.8.0 ('No Sleep / Pillow') built on Sep 2 2012 15:37:04
Библиотека кодирования : libebml v1.2.3 + libmatroska v1.3.0

Видео
Идентификатор : 1
Формат : AVC
Формат/Информация : Advanced Video Codec
Профиль формата : High@L4.1
Параметр CABAC формата : Да
Параметр ReFrames формата : 5 кадров
Идентификатор кодека : V_MPEG4/ISO/AVC
Продолжительность : 2 ч. 50 м.
Битрейт : 7140 Кбит/сек
Ширина : 1920 пикселей
Высота : 800 пикселей
Соотношение сторон : 2,40:1
Режим частоты кадров : Постоянный
Частота кадров : 23,976 кадра/сек
Цветовое пространство : YUV
Субдискретизация насыщенности : 4:2:0
Битовая глубина : 8 бит
Тип развёртки : Прогрессивная
Бит/(Пиксели*Кадры) : 0.194
Размер потока : 8,27 Гбайт (72%)
Заголовок : Rip by Boriy
Библиотека кодирования : x264 core 140 r2377 1ca7bb9
Настройки программы : cabac=1 / ref=5 / deblock=1:-3:-3 / analyse=0x3:0x113 / me=umh / subme=11 / psy=1 / psy_rd=1.00:0.00 / mixed_ref=1 / me_range=32 / chroma_me=1 / trellis=2 / 8x8dct=1 / cqm=0 / deadzone=21,11 / fast_pskip=0 / chroma_qp_offset=-2 / threads=12 / lookahead_threads=1 / sliced_threads=0 / nr=0 / decimate=0 / interlaced=0 / bluray_compat=0 / constrained_intra=0 / bframes=6 / b_pyramid=2 / b_adapt=2 / b_bias=0 / direct=3 / weightb=1 / open_gop=0 / weightp=2 / keyint=240 / keyint_min=23 / scenecut=40 / intra_refresh=0 / rc=2pass / mbtree=0 / bitrate=7140 / ratetol=1.0 / qcomp=0.60 / qpmin=0 / qpmax=69 / qpstep=4 / cplxblur=20.0 / qblur=0.5 / ip_ratio=1.40 / pb_ratio=1.30 / aq=1:0.80
Язык : English
Default : Да
Forced : Нет

Аудио #1
Идентификатор : 2
Формат : AC-3
Формат/Информация : Audio Coding 3
Расширение режима : CM (complete main)
Параметр Endianness формата : Big
Идентификатор кодека : A_AC3
Продолжительность : 2 ч. 50 м.
Вид битрейта : Постоянный
Битрейт : 640 Кбит/сек
Каналы : 6 каналов
Расположение каналов : Front: L C R, Side: L R, LFE
Частота : 48,0 КГц
Битовая глубина : 16 бит
Метод сжатия : С потерями
Размер потока : 780 Мбайт (7%)
Заголовок : Многоголосый закадровый, Twister
Язык : Russian
Default : Да
Forced : Нет

Аудио #2
Идентификатор : 3
Формат : AC-3
Формат/Информация : Audio Coding 3
Расширение режима : CM (complete main)
Параметр Endianness формата : Big
Идентификатор кодека : A_AC3
Продолжительность : 2 ч. 50 м.
Вид битрейта : Постоянный
Битрейт : 640 Кбит/сек
Каналы : 6 каналов
Расположение каналов : Front: L C R, Side: L R, LFE
Частота : 48,0 КГц
Битовая глубина : 16 бит
Метод сжатия : С потерями
Размер потока : 780 Мбайт (7%)
Заголовок : Многоголосый закадровый, Gemini
Язык : Russian
Default : Нет
Forced : Нет

Аудио #3
Идентификатор : 4
Формат : AC-3
Формат/Информация : Audio Coding 3
Расширение режима : CM (complete main)
Параметр Endianness формата : Big
Идентификатор кодека : A_AC3
Продолжительность : 2 ч. 50 м.
Вид битрейта : Постоянный
Битрейт : 640 Кбит/сек
Каналы : 6 каналов
Расположение каналов : Front: L C R, Side: L R, LFE
Частота : 48,0 КГц
Битовая глубина : 16 бит
Метод сжатия : С потерями
Размер потока : 780 Мбайт (7%)
Заголовок : Одноголосый закадровый, А. Гаврилов
Язык : Russian
Default : Нет
Forced : Нет

Аудио #4
Идентификатор : 5
Формат : AC-3
Формат/Информация : Audio Coding 3
Расширение режима : CM (complete main)
Параметр Endianness формата : Big
Идентификатор кодека : A_AC3
Продолжительность : 2 ч. 50 м.
Вид битрейта : Постоянный
Битрейт : 640 Кбит/сек
Каналы : 6 каналов
Расположение каналов : Front: L C R, Side: L R, LFE
Частота : 48,0 КГц
Битовая глубина : 16 бит
Метод сжатия : С потерями
Размер потока : 780 Мбайт (7%)
Заголовок : Оригинал
Язык : English
Default : Нет
Forced : Нет

Текст #1
Идентификатор : 6
Формат : UTF-8
Идентификатор кодека : S_TEXT/UTF8
Идентификатор кодека/Информация : UTF-8 Plain Text
Заголовок : Twister
Язык : Russian
Default : Нет
Forced : Нет

Текст #2
Идентификатор : 7
Формат : UTF-8
Идентификатор кодека : S_TEXT/UTF8
Идентификатор кодека/Информация : UTF-8 Plain Text
Заголовок : Gemini
Язык : Russian
Default : Нет
Forced : Нет

Текст #3
Идентификатор : 8
Формат : UTF-8
Идентификатор кодека : S_TEXT/UTF8
Идентификатор кодека/Информация : UTF-8 Plain Text
Язык : English
Default : Нет
Forced : Нет

Меню
00:00:00.000 : :Tools for the Job (Credits)
00:04:22.512 : :Attention in the Morning
00:07:04.006 : :Countdown to a Heist
00:10:07.607 : :Quick on the Trigger
00:13:35.231 : :Neil and Nate
00:14:52.224 : :Vincent in Charge
00:18:21.058 : :Aid of Waingro
00:21:03.512 : :Three Households Under Strain
00:25:23.939 : :A Connection: Neil and Eady
00:31:59.500 : :Albert Irks Vincent's Ire
00:34:56.302 : :Deals in the Works
00:37:55.273 : :No Attachments
00:40:48.028 : :Rules of the Game
00:44:34.088 : :A Lead on Slick
00:49:21.917 : :Shootout at the Drive-In
00:52:02.119 : :Dead Man Talking
00:52:56.923 : :An Evening Out
00:56:03.568 : :The Grim Reaper Visits
00:58:10.320 : :A Mother's Pain
01:01:41.698 : :The Mess Vincent Leaves
01:04:29.740 : :Couples Seeking Comfort
01:08:27.186 : :Walking Away Under Watch
01:14:49.860 : :Everybody's In
01:17:15.422 : :In Each Other's Sights
01:21:57.579 : :A Hit-and-Miss Guy; Going Out
01:25:22.367 : :Invitation to Coffee
01:28:50.616 : :A Couple of Regular Fellows
01:35:08.536 : :Where These People Are
01:36:59.271 : :New Affications
01:41:19.281 : :The Heist Begins
01:45:05.382 : :Tipped Off
01:46:39.059 : :Under Fire
01:52:35.081 : :Cheritto's Last Stand
01:53:56.079 : :Fallout
01:56:49.252 : :The Source of the Leak
01:59:18.943 : :Revenge
02:02:51.030 : :Charlene's Choice
02:07:24.219 : :It Will Be Different
02:10:05.589 : :A Means Towards Closure
02:12:08.629 : :No Point
02:14:45.452 : :With a Wave
02:19:26.316 : :Tv to Go
02:21:44.245 : :Not Letting Go of Lauren
02:25:33.349 : :Home Free...Nearly
02:28:01.998 : :Closing In
02:30:45.411 : :"I'm Not What You Think, Justine"
02:33:03.632 : :Looking at Death
02:35:05.796 : :One Last Look
02:38:20.449 : :Runaway Cat-and-Mouse
02:40:25.657 : :In the Light
02:43:51.321 : :Hand in Hand
02:45:47.938 : :End Credits
ЦитатаIvGrad писал:
boriy

С 01:04:35 начинается рассинхронизация дубляжа от Карусели с видеорядом.
Дорога Карусели - убрана, видео переделано, добавлены дороги и сабы:Twister, Gemini

Раздача обновлена !
загрузка...
Правила, инструкции, FAQ!!!
Торрент  Добавлен [29 янв 2014, 20:10] Скачать торрент
Скачать торрент
[ Размер 58.17 КБ / Просмотров 14 ]

Статус  
 
Размер  11.55 ГБ
Приватный: Нет (DHT включён)
.torrent скачан  2
Как залить торрент? | Как скачать Torrent? | Как смотреть и слушать онлайн?  


     Отправить личное сообщение
   
Страница 1 из 1
Показать сообщения за:  Поле сортировки  
Начать новую тему Ответить на тему

   Похожие торренты   Автор   Ответы   Просмотры   Последнее сообщение 
В этой теме нет новых непрочитанных сообщений. Скачать торрент Схватка / The Grey (2012) BDRip 1080p | Лицензия

в форуме 720p | 1080p, Размер: 8.76 ГБ, Здоровье: 100%

Anonymous

0
17|0

31
3

29 янв 2014, 20:24

Anonymous Перейти к последнему сообщению

В этой теме нет новых непрочитанных сообщений. Скачать торрент Схватка / The Grey (2012) BDRip 720p | D, A

в форуме 720p | 1080p, Размер: 7.97 ГБ, Здоровье: 100%

Anonymous

0
6|0

23
0

29 янв 2014, 20:16

Anonymous Перейти к последнему сообщению

В этой теме нет новых непрочитанных сообщений. Скачать торрент Схватка / The Grey (2012) BDRip | Лицензия

в форуме Боевики, Размер: 1.45 ГБ, Здоровье: 100%

Anonymous

0
106|5

28
11

29 янв 2014, 20:20

Anonymous Перейти к последнему сообщению

В этой теме нет новых непрочитанных сообщений. Скачать торрент Ип Ман: Последняя схватка / Yip Man: Jung gik yat jin (2013) BDRip 720p

в форуме 720p | 1080p, Размер: 3.39 ГБ, Здоровье: 100%

Anonymous

0
36|3

20
1

15 дек 2013, 19:40

Anonymous Перейти к последнему сообщению

В этой теме нет новых непрочитанных сообщений. Скачать торрент Проверен Хакеры / Hackers (1995) BDRip 1080p

в форуме 720p | 1080p, Размер: 9.78 ГБ, Здоровье: 100%

Гость

0
45|43

57
35

16 авг 2015, 19:15

Гость Перейти к последнему сообщению



Сейчас этот форум просматривают: нет зарегистрированных пользователей и гости: 3


Вы не можете начинать темы
Вы не можете отвечать на сообщения
Вы не можете редактировать свои сообщения
Вы не можете удалять свои сообщения
Вы не можете добавлять вложения

Перейти:  

!ВНИМАНИЕ!
 Ресурс не предоставляет электронные версии произведений, а занимается лишь коллекционированием и каталогизацией ссылок, присылаемых и публикуемых на форуме нашими читателями. Если вы являетесь правообладателем какого-либо представленного материала и не желаете чтобы ссылка на него находилась в нашем каталоге, свяжитесь с нами и мы незамедлительно удалим её. Файлы для обмена на трекере предоставлены пользователями сайта, и администрация не несёт ответственности за их содержание. Просьба не заливать файлы, защищенные авторскими правами, а также файлы нелегального содержания!