На всех торрентах на трекере установлена скидка на скачивание в размере 100 процентов(а).
 Возможность скачивания торрента НЕ зависит от ограничений при низком ратио, низком аплоаде, требуемом ратио или требуемом аплоаде.


Начать новую тему Ответить на тему
Статистика раздачи
Размер: 3.02 ГБ | Добавлен: 29 янв 2014, 07:38 | Скачали: 0
Сидеров: 0  [0 байт/сек]    Личеров: 0  [0 байт/сек]
Пред. тема | След. тема 

Автор
Сообщение

СообщениеДобавлено: 29 янв 2014, 07:38 

Название: Разрисованная вуаль
Оригинальное название: The Painted Veil
Год выпуска: 2006
Жанр: Драма, мелодрама
Режиссер: Джон Керран

В ролях: Наоми Уоттс, Эдвард Нортон, Лив Шрайбер, Тоби Джонс, Дайана Ригг, Энтони Вонг Чау-Санг, Гесан Мейдуо, Чен Шихан, Катрин Эн, Ли Бинь, Бин Ву, Алан Дэвид, Салли Хокинс, Джульетт Хоуланд, Лоррэйн Лоуренс, Мэгги Стид, Зои Телфорд, Хелен Кардона

О фильме: 20-е годы XX века. Очаровательная Китти, дама из высшего общества, выходит замуж за молодого врача Уолтера. Когда молодожены уезжают в Шанхай, Китти изменяет мужу. Но Уолтер раскрывает ее тайну. В гневе он решает отправиться в глухую китайскую деревушку, где свирепствует эпидемия холеры, и забирает неверную супругу с собой. Путешествие по экзотическим краям, странные нравы чужого, враждебного мира и постоянный риск наполнят жизнь супругов остротой и новым смыслом, но заставят ли они Китти посмотреть на Уолтера любящими глазами?



Страна: Китай, США, Канада
Студия: Bob Yari Productions, Class 5 Films, Colleton Company, The, Dragon Studios, Emotion Pictures, Stratus Film Co
Продолжительность: 02:04:57
Перевод: Дублированный, профессиональный двухголосый, авторский одноголосый


Кодек: x264
Качество: BDRip-AVC
Видео: MPEG-4 AVC, 1670 Кбит/с, 1024х424, 23.976 кадр/с
Звук:
Аудио #1: Русский (AC3, 6 ch, 448 Кбит/с) / Дублированный
Аудио #2: Русский (AC3, 6 ch, 448 Кбит/с) / Профессиональный двухголосый (П.Гланц и И.Королёва)
Аудио #3: Русский (AC3, 6 ch, 448 Кбит/с) / Авторский одноголосый (Ю.Немахов)
Аудио #4: Английский (AC3, 6 ch, 448 Кбит/с)
Субтитры: Русские, английские

Семпл

x264 [info]: frame I:1713 Avg QP:13.62 size: 75090
x264 [info]: frame P:48594 Avg QP:17.21 size: 18294
x264 [info]: frame B:129452 Avg QP:18.93 size: 4231

=============================================

Уникальный идентификатор : 178032410202063326322640550335338335177 (0x85EFCB8454B2A2C388CB6B2919214BC9)
Полное имя : E:MCRazrisowannaja.wual.2006.x264.BDRip(AVC)-MediaClubRazrisowannaja.wual.2006.x264.BDRip(AVC)-MediaClub.mkv
Формат : Matroska
Версия формата : Version 4 / Version 2
Размер файла : 3,02 Гбайт
Продолжительность : 2 ч. 4 м.
Общий поток : 3465 Кбит/сек
Название фильма : -= Release MediaClub =-
Дата кодирования : UTC 2014-01-23 08:17:23
Программа кодирования : mkvmerge v6.4.1 ('Omega Point') built on Sep 16 2013 22:05:10
Библиотека кодирования : libebml v1.3.0 + libmatroska v1.4.1

Видео
Идентификатор : 1
Формат : AVC
Формат/Информация : Advanced Video Codec
Профиль формата : High@L4.1
Параметр CABAC формата : Да
Параметр ReFrames формата : 11 кадров
Идентификатор кодека : V_MPEG4/ISO/AVC
Продолжительность : 2 ч. 4 м.
Битрейт : 1670 Кбит/сек
Ширина : 1024 пикселя
Высота : 424 пикселя
Соотношение сторон : 2,40:1
Режим частоты кадров : Постоянный
Частота кадров : 23,976 кадра/сек
Цветовое пространство : YUV
Субдискретизация насыщенности : 4:2:0
Битовая глубина : 8 бит
Тип развёртки : Прогрессивная
Бит/(Пиксели*Кадры) : 0.160
Размер потока : 1,40 Гбайт (46%)
Заголовок : Razrisowannaja.wual.2006.x264.BDRip(AVC)-neni
Библиотека кодирования : x264 core 130 r2273 b3065e6
Настройки программы : cabac=1 / ref=11 / deblock=1:-2:-2 / analyse=0x3:0x113 / me=umh / subme=11 / psy=1 / psy_rd=1.00:0.20 / mixed_ref=1 / me_range=48 / chroma_me=1 / trellis=2 / 8x8dct=1 / cqm=0 / deadzone=21,11 / fast_pskip=0 / chroma_qp_offset=-3 / threads=9 / lookahead_threads=1 / sliced_threads=0 / nr=0 / decimate=0 / interlaced=0 / bluray_compat=0 / constrained_intra=0 / bframes=8 / b_pyramid=2 / b_adapt=2 / b_bias=0 / direct=3 / weightb=1 / open_gop=0 / weightp=2 / keyint=240 / keyint_min=23 / scenecut=40 / intra_refresh=0 / rc=2pass / mbtree=0 / bitrate=1670 / ratetol=1.0 / qcomp=0.60 / qpmin=0 / qpmax=69 / qpstep=4 / cplxblur=20.0 / qblur=0.5 / ip_ratio=1.40 / pb_ratio=1.30 / aq=1:1.00
Язык : English
Default : Да
Forced : Да

Аудио #1
Идентификатор : 2
Формат : AC-3
Формат/Информация : Audio Coding 3
Расширение режима : CM (complete main)
Параметр Endianness формата : Big
Идентификатор кодека : A_AC3
Продолжительность : 2 ч. 4 м.
Вид битрейта : Постоянный
Битрейт : 448 Кбит/сек
Каналы : 6 каналов
Расположение каналов : Front: L C R, Side: L R, LFE
Частота : 48,0 КГц
Битовая глубина : 16 бит
Метод сжатия : С потерями
Размер потока : 400 Мбайт (13%)
Заголовок : Russian: 48 kHz, AC3, 3/2 (L,C,R,l,r) + LFE ch, ~448.00 kbps avg |Дубляж|
Язык : Russian
Default : Да
Forced : Да

Аудио #2
Идентификатор : 3
Формат : AC-3
Формат/Информация : Audio Coding 3
Расширение режима : CM (complete main)
Параметр Endianness формата : Big
Идентификатор кодека : A_AC3
Продолжительность : 2 ч. 4 м.
Вид битрейта : Постоянный
Битрейт : 448 Кбит/сек
Каналы : 6 каналов
Расположение каналов : Front: L C R, Side: L R, LFE
Частота : 48,0 КГц
Битовая глубина : 16 бит
Метод сжатия : С потерями
Размер потока : 400 Мбайт (13%)
Заголовок : Russian: 48 kHz, AC3, 3/2 (L,C,R,l,r) + LFE ch, ~448.00 kbps avg |Двухголосый закадровый, П.Гланц и И.Королёва|
Язык : Russian
Default : Нет
Forced : Нет

Аудио #3
Идентификатор : 4
Формат : AC-3
Формат/Информация : Audio Coding 3
Расширение режима : CM (complete main)
Параметр Endianness формата : Big
Идентификатор кодека : A_AC3
Продолжительность : 2 ч. 4 м.
Вид битрейта : Постоянный
Битрейт : 448 Кбит/сек
Каналы : 6 каналов
Расположение каналов : Front: L C R, Side: L R, LFE
Частота : 48,0 КГц
Битовая глубина : 16 бит
Метод сжатия : С потерями
Размер потока : 400 Мбайт (13%)
Заголовок : Russian: 48 kHz, AC3, 3/2 (L,C,R,l,r) + LFE ch, ~448.00 kbps avg |Одноголосый закадровый, Ю.Немахов|
Язык : Russian
Default : Нет
Forced : Нет

Аудио #4
Идентификатор : 5
Формат : AC-3
Формат/Информация : Audio Coding 3
Расширение режима : CM (complete main)
Параметр Endianness формата : Big
Идентификатор кодека : A_AC3
Продолжительность : 2 ч. 4 м.
Вид битрейта : Постоянный
Битрейт : 448 Кбит/сек
Каналы : 6 каналов
Расположение каналов : Front: L C R, Side: L R, LFE
Частота : 48,0 КГц
Битовая глубина : 16 бит
Метод сжатия : С потерями
Размер потока : 400 Мбайт (13%)
Заголовок : English: 48 kHz, AC3, 3/2 (L,C,R,l,r) + LFE ch, ~448.00 kbps avg
Язык : English
Default : Нет
Forced : Нет

Текст #1
Идентификатор : 6
Формат : UTF-8
Идентификатор кодека : S_TEXT/UTF8
Идентификатор кодека/Информация : UTF-8 Plain Text
Язык : Russian
Default : Нет
Forced : Нет

Текст #2
Идентификатор : 7
Формат : UTF-8
Идентификатор кодека : S_TEXT/UTF8
Идентификатор кодека/Информация : UTF-8 Plain Text
Язык : English
Default : Нет
Forced : Нет

Меню
00:00:00.000 : en:00:00:00.000
00:10:41.683 : en:00:10:41.683
00:22:23.384 : en:00:22:23.384
00:31:34.851 : en:00:31:34.851
00:40:41.022 : en:00:40:41.022
00:50:23.896 : en:00:50:23.896
01:01:50.832 : en:01:01:50.832
01:13:21.188 : en:01:13:21.188
01:24:20.097 : en:01:24:20.097
01:33:36.611 : en:01:33:36.611
01:43:15.189 : en:01:43:15.189
01:58:08.248 : en:01:58:08.248
02:04:57.198 : en:02:04:57.198
За постер, огромное спасибо команде Media-Art-Club!!!
За исходник спасибо команде HDClub




Релиз от: Rip by
загрузка...
Правила, инструкции, FAQ!!!
Торрент  Добавлен [29 янв 2014, 07:38] Скачать торрент
Скачать торрент
[ Размер 15.81 КБ / Просмотров 12 ]

Статус  
 
Размер  3.02 ГБ
Приватный: Нет (DHT включён)
.torrent скачан  0
Как залить торрент? | Как скачать Torrent? | Как смотреть и слушать онлайн?  


     Отправить личное сообщение
   
Страница 1 из 1
Показать сообщения за:  Поле сортировки  
Начать новую тему Ответить на тему

   Похожие торренты   Автор   Ответы   Просмотры   Последнее сообщение 
В этой теме нет новых непрочитанных сообщений. Скачать торрент Разрисованная вуаль / The Painted Veil (2006) BDRip

в форуме Драмы, Мелодрамы, Размер: 2.18 ГБ, Здоровье: 0%

Anonymous

0
0|0

25
0

29 янв 2014, 07:33

Anonymous Перейти к последнему сообщению

В этой теме нет новых непрочитанных сообщений. Скачать торрент Разрисованная вуаль / The Painted Veil (2006) BDRip 1080p | D, P2, A

в форуме 720p | 1080p, Размер: 14.78 ГБ, Здоровье: 0%

Anonymous

0
0|0

15
0

29 янв 2014, 07:43

Anonymous Перейти к последнему сообщению

В этой теме нет новых непрочитанных сообщений. Скачать торрент Проверен Раскрашенная кожа 2 / Hua Pi 2 / Painted Skin: The Resurrection (2012) BDRip [1080p] 3D [Вертикальная анаморфная стереопара]

в форуме HD-Video в 3D, Размер: 8.83 ГБ, Здоровье: 100%

Anonymous

0
3|1

56
0

16 июл 2014, 08:42

Anonymous Перейти к последнему сообщению

В этой теме нет новых непрочитанных сообщений. Скачать торрент Проверен (progressive metal) Miscellane - Painted Palm - 2002, MP3, 320 kbps

в форуме Heavy, Power, Progressive (Metal), Размер: 135.97 МБ, Здоровье: 0%

Anonymous

0
0|0

0
0

08 окт 2016, 18:26

Anonymous Перейти к последнему сообщению

В этой теме нет новых непрочитанных сообщений. Скачать торрент Проверен (Progressive Metal) Painted Glass - Anoetic - 2014, MP3, 320 kbps

в форуме Heavy, Power, Progressive (Metal), Размер: 102 МБ, Здоровье: 0%

Anonymous

0
0|0

0
0

08 окт 2016, 13:12

Anonymous Перейти к последнему сообщению



Сейчас этот форум просматривают: нет зарегистрированных пользователей и гости: 1


Вы не можете начинать темы
Вы не можете отвечать на сообщения
Вы не можете редактировать свои сообщения
Вы не можете удалять свои сообщения
Вы не можете добавлять вложения

Перейти:  

!ВНИМАНИЕ!
 Ресурс не предоставляет электронные версии произведений, а занимается лишь коллекционированием и каталогизацией ссылок, присылаемых и публикуемых на форуме нашими читателями. Если вы являетесь правообладателем какого-либо представленного материала и не желаете чтобы ссылка на него находилась в нашем каталоге, свяжитесь с нами и мы незамедлительно удалим её. Файлы для обмена на трекере предоставлены пользователями сайта, и администрация не несёт ответственности за их содержание. Просьба не заливать файлы, защищенные авторскими правами, а также файлы нелегального содержания!