На всех торрентах на трекере установлена скидка на скачивание в размере 100 процентов(а).
 Возможность скачивания торрента НЕ зависит от ограничений при низком ратио, низком аплоаде, требуемом ратио или требуемом аплоаде.


Начать новую тему Ответить на тему
Статистика раздачи
Размер: 4.37 ГБ | Добавлен: 28 янв 2014, 20:34 | Скачали: 0
Сидеров: 0  [0 байт/сек]    Личеров: 0  [0 байт/сек]
Пред. тема | След. тема 

Автор
Сообщение

СообщениеДобавлено: 28 янв 2014, 20:34 

Название: Пришельцы на чердаке
Оригинальное название: Aliens in the Attic
Год выхода: 2009
Жанр: фантастика, фэнтези, комедия, приключения, семейный
Режиссер: Джон Шульц

В ролях: Картер Дженкинс, Остин Роберт Батлер, Эшли Тисдейл, Эшли Боеттчер, Генри Янг, Риган Янг, Дорис Робертс, Роберт Хоффман, Кевин Нилон, Джиллиан Вигмэн

Роли дублировали: Глеб Гаврилов, Григорий Захарьев, Эльвира Ишмуратова, Иван Чабан, Андрей Лёвин

Описание: Несколько подростков приезжают на каникулы в загородный дом и, к своему ужасу и удивлению, обнаруживают на верхнем этаже группу инопланетян. Ребята, защищая свой дом, вступают с ними в бой.



Страна: США, Канада
Продолжительность: 01:25:48
Перевод #1: Профессиональный (Дублированный) (Blu-ray CEE)
Перевод #2: Английский (Оригинал)


Формат: MKV
Качество: BDRip 720p (Источник: Blu-ray Disc)
Видео: 1280x688 (1.85:1), 23.976 fps, 6014 kbps, 0.285 bit/pixel
Аудио #1: AC-3, 6 ch, 640 kbps (Дублированный Blu-ray CEE)
Аудио #2: AC-3, 6 ch, 640 kbps (Английский Оригинал)
Субтитры: Русские (Полные), Английские (Полные)
Скачать: Семпл


General
Unique ID : 217789364455584384873095800229481045378 (0xA3D8B4B31230E25693C92B0D7BA25D82)
Complete name : Aliens.in.the.Attic.2009.BDRip.720p.mkv
Format : Matroska
Format version : Version 2
File size : 4.37 GiB
Duration : 1h 25mn
Overall bit rate : 7 290 Kbps
Encoded date : UTC 2014-01-21 23:03:07
Writing application : mkvmerge v5.6.0 ('Kenya Kane') built on May 27 2012 16:44:04
Writing library : libebml v1.2.3 + libmatroska v1.3.0

Video
ID : 1
Format : AVC
Format/Info : Advanced Video Codec
Format profile : High@L4.1
Format settings, CABAC : Yes
Format settings, ReFrames : 8 frames
Codec ID : V_MPEG4/ISO/AVC
Duration : 1h 25mn
Bit rate : 6 014 Kbps
Width : 1 280 pixels
Height : 688 pixels
Display aspect ratio : 1.85:1
Frame rate mode : Constant
Frame rate : 23.976 fps
Color space : YUV
Chroma subsampling : 4:2:0
Bit depth : 8 bits
Scan type : Progressive
Bits/(Pixel*Frame) : 0.285
Stream size : 3.52 GiB (80%)
Title : Пришельцы на чердаке / Aliens in the Attic (2009)
Writing library : x264 core 130 r2273 b3065e6
Encoding settings : cabac=1 / ref=8 / deblock=1:-3:-3 / analyse=0x3:0x113 / me=umh / subme=11 / psy=1 / psy_rd=1.00:0.00 / mixed_ref=1 / me_range=32 / chroma_me=1 / trellis=2 / 8x8dct=1 / cqm=0 / deadzone=21,11 / fast_pskip=1 / chroma_qp_offset=-2 / threads=6 / lookahead_threads=1 / sliced_threads=0 / nr=0 / decimate=1 / interlaced=0 / bluray_compat=0 / constrained_intra=0 / bframes=6 / b_pyramid=2 / b_adapt=2 / b_bias=0 / direct=3 / weightb=1 / open_gop=0 / weightp=2 / keyint=240 / keyint_min=23 / scenecut=40 / intra_refresh=0 / rc=2pass / mbtree=0 / bitrate=6014 / ratetol=1.0 / qcomp=0.60 / qpmin=0 / qpmax=69 / qpstep=4 / cplxblur=20.0 / qblur=0.5 / ip_ratio=1.40 / pb_ratio=1.30 / aq=1:1.00
Language : English
Default : Yes
Forced : No
Color primaries : BT.709
Transfer characteristics : BT.709
Matrix coefficients : BT.709

Audio #1
ID : 2
Format : AC-3
Format/Info : Audio Coding 3
Mode extension : CM (complete main)
Format settings, Endianness : Big
Codec ID : A_AC3
Duration : 1h 25mn
Bit rate mode : Constant
Bit rate : 640 Kbps
Channel count : 6 channels
Channel positions : Front: L C R, Side: L R, LFE
Sampling rate : 48.0 KHz
Bit depth : 16 bits
Compression mode : Lossy
Stream size : 393 MiB (9%)
Title : Дублированный 5.1 (Лицензия)
Language : Russian
Default : Yes
Forced : No

Audio #2
ID : 3
Format : AC-3
Format/Info : Audio Coding 3
Mode extension : CM (complete main)
Format settings, Endianness : Big
Codec ID : A_AC3
Duration : 1h 25mn
Bit rate mode : Constant
Bit rate : 640 Kbps
Channel count : 6 channels
Channel positions : Front: L C R, Side: L R, LFE
Sampling rate : 48.0 KHz
Bit depth : 16 bits
Compression mode : Lossy
Stream size : 393 MiB (9%)
Title : Английский 5.1 (Оригинал)
Language : English
Default : No
Forced : No

Text #1
ID : 4
Format : UTF-8
Codec ID : S_TEXT/UTF8
Codec ID/Info : UTF-8 Plain Text
Title : Русские (Полные)
Language : Russian
Default : No
Forced : No

Text #2
ID : 5
Format : UTF-8
Codec ID : S_TEXT/UTF8
Codec ID/Info : UTF-8 Plain Text
Title : Английские (Полные)
Language : English
Default : No
Forced : No
загрузка...
Правила, инструкции, FAQ!!!
Торрент  Добавлен [28 янв 2014, 20:34] Скачать торрент
Скачать торрент
[ Размер 22.27 КБ / Просмотров 8 ]

Статус  
 
Размер  4.37 ГБ
Приватный: Нет (DHT включён)
.torrent скачан  0
Как залить торрент? | Как скачать Torrent? | Как смотреть и слушать онлайн?  


     Отправить личное сообщение
   
Страница 1 из 1
Показать сообщения за:  Поле сортировки  
Начать новую тему Ответить на тему

   Похожие торренты   Автор   Ответы   Просмотры   Последнее сообщение 
В этой теме нет новых непрочитанных сообщений. Скачать торрент Проверен Цветы на чердаке / Flowers in the Attic (2014) WEB-DL 720p | L1

в форуме 720p | 1080p, Размер: 2.81 ГБ, Здоровье: 100%

Anonymous

0
38|0

35
829

12 июн 2014, 20:37

Anonymous Перейти к последнему сообщению

В этой теме нет новых непрочитанных сообщений. Скачать торрент Проверен Пришельцы-завоеватели / Evil Aliens (2005) BDRip-AVC | L1 | UNRATED

в форуме Ужасы, Размер: 1.64 ГБ, Здоровье: 100%

Anonymous

0
1|0

56
1

11 июл 2014, 07:52

Anonymous Перейти к последнему сообщению

В этой теме нет новых непрочитанных сообщений. Скачать торрент Проверен Монстры против пришельцев в 3Д / Monsters vs Aliens 3D (Роб Леттерман, Конрад Вернон / Rob Letterman, Conrad Vernon) [2009, фантастическая комедия, BDrip 720p] Вертикальная стереопара

в форуме 3D Мультфильмы, Размер: 4.27 ГБ, Здоровье: 0%

Anonymous

0
0|0

6
0

07 сен 2016, 17:30

Anonymous Перейти к последнему сообщению

В этой теме нет новых непрочитанных сообщений. Скачать торрент Проверен Пришельцы / Extraterrestrial (2014) BDRip [720p]

в форуме 720p | 1080p, Размер: 4.64 ГБ, Здоровье: ???%

Гость

0
0|2

44
0

25 мар 2015, 23:32

Гость Перейти к последнему сообщению

В этой теме нет новых непрочитанных сообщений. Скачать торрент Проверен Пришельцы / Les Visiteurs (1993) BDRip 720p

в форуме 720p | 1080p, Размер: 4.51 ГБ, Здоровье: 88%

Гость

0
40|45

86
32

19 авг 2015, 23:03

Гость Перейти к последнему сообщению



Сейчас этот форум просматривают: нет зарегистрированных пользователей и гости: 4


Вы не можете начинать темы
Вы не можете отвечать на сообщения
Вы не можете редактировать свои сообщения
Вы не можете удалять свои сообщения
Вы не можете добавлять вложения

Перейти:  

!ВНИМАНИЕ!
 Ресурс не предоставляет электронные версии произведений, а занимается лишь коллекционированием и каталогизацией ссылок, присылаемых и публикуемых на форуме нашими читателями. Если вы являетесь правообладателем какого-либо представленного материала и не желаете чтобы ссылка на него находилась в нашем каталоге, свяжитесь с нами и мы незамедлительно удалим её. Файлы для обмена на трекере предоставлены пользователями сайта, и администрация не несёт ответственности за их содержание. Просьба не заливать файлы, защищенные авторскими правами, а также файлы нелегального содержания!