На всех торрентах на трекере установлена скидка на скачивание в размере 100 процентов(а).
 Возможность скачивания торрента НЕ зависит от ограничений при низком ратио, низком аплоаде, требуемом ратио или требуемом аплоаде.


Начать новую тему Ответить на тему
Статистика раздачи
Размер: 4.48 ГБ | Добавлен: 27 янв 2014, 18:24 | Скачали: 4
Сидеров: 2  [0 байт/сек]    Личеров: 1  [0 байт/сек]
Пред. тема | След. тема 

Автор
Сообщение

СообщениеДобавлено: 27 янв 2014, 18:24 

Название: Артур Ньюман, профессионал гольфа
Оригинальное название: Arthur Newman
Год выхода: 2012
Жанр: драма, комедия
Режиссер: Брэдли Дорси

В ролях: Эмили Блант, Колин Ферт, Энн Хеч, Стерлинг Бомон, Дэвид Эндрюс, Николь Лалиберт, Отем Диал, Майкл Бисли, Стив Култер, Джо Монтанти

О фильме:
Когда-то Уолес Эвери был довольно успешным игроком в гольф, однако ему так и не удалось стать знаменитым. Сейчас он живет скучной однообразной жизнью: отношения с сыном-подростком не складываются, его охватывает постоянная депрессия, да и вообще у него давно наступил кризис среднего возраста. В один прекрасный момент он принимает решение начать все с чистого листа. Уолес инсценирует собственную смерть, покупает поддельные документы и уезжает в другой штат. Теперь он — Артур Ньюман, профессиональный игрок в гольф. В один прекрасный момент он знакомится с девушкой по имени Микаэлла, которая становится частью его новой жизни. Как оказывается позднее, она тоже изменила свое имя...



Выпущено: США
Продолжительность: 01:33:19
Озвучивание: Профессиональное (многоголосое) [Amedia]


Формат: MKV
Качество: BDRip 720p [TayTO]
Видео: 4833 kb/s, 1280x534
Аудио: Russian: AC3, 384 kb/s (6 ch) / English: DTS, 1510 kb/s (6 ch)
Субтитры: Russian [pinakolada], English
Дополнительно: Сохранены оригинальные чаптеры как на Blu-ray

Скачать: Сэмпл

Релиз группы:




Общее
Arthur.Newman.2012.Blu.Ray.720p.CINEMANIA.mkv
Формат : Matroska
Версия формата : Version 4 / Version 2
Размер файла : 4,48 Гбайт
Продолжительность : 1 ч. 33 м.
Общий поток : 6862 Кбит/сек
Название фильма : Release Group CINEMANIA
Дата кодирования : UTC 2014-01-27 11:13:28
Программа кодирования : mkvmerge v6.7.0 ('Back to the Ground') 64bit built on Jan 8 2014 15:10:52
Библиотека кодирования : libebml v1.3.0 + libmatroska v1.4.1

Видео
Идентификатор : 1
Формат : AVC
Формат/Информация : Advanced Video Codec
Профиль формата : High@L4.1
Параметр CABAC формата : Да
Параметр ReFrames формата : 12 кадров
Идентификатор кодека : V_MPEG4/ISO/AVC
Продолжительность : 1 ч. 33 м.
Битрейт : 4833 Кбит/сек
Номинальный битрейт : 5115 Кбит/сек
Ширина : 1280 пикселей
Высота : 534 пикселя
Соотношение сторон : 2,40:1
Режим частоты кадров : Постоянный
Частота кадров : 23,976 кадра/сек
Цветовое пространство : YUV
Субдискретизация насыщенности : 4:2:0
Битовая глубина : 8 бит
Тип развёртки : Прогрессивная
Бит/(Пиксели*Кадры) : 0.295
Размер потока : 3,16 Гбайт (70%)
Заголовок : Release Group CINEMANIA
Библиотека кодирования : x264 core 135 r2345 f0c1c53
Настройки программы : cabac=1 / ref=12 / deblock=1:-3:-3 / analyse=0x3:0x133 / me=tesa / subme=11 / psy=1 / psy_rd=1.05:0.00 / mixed_ref=1 / me_range=16 / chroma_me=1 / trellis=2 / 8x8dct=1 / cqm=0 / deadzone=21,11 / fast_pskip=0 / chroma_qp_offset=-2 / threads=12 / lookahead_threads=2 / sliced_threads=0 / nr=0 / decimate=1 / interlaced=0 / bluray_compat=0 / constrained_intra=0 / bframes=7 / b_pyramid=2 / b_adapt=2 / b_bias=0 / direct=3 / weightb=1 / open_gop=0 / weightp=2 / keyint=250 / keyint_min=23 / scenecut=40 / intra_refresh=0 / rc=abr / mbtree=0 / bitrate=5115 / ratetol=1.0 / qcomp=0.75 / qpmin=0 / qpmax=69 / qpstep=4 / ip_ratio=1.40 / pb_ratio=1.30 / aq=1:0.70
Язык : English
Default : Да
Forced : Нет
Коэффициенты матрицы : BT.709

Аудио #1
Идентификатор : 2
Формат : AC-3
Формат/Информация : Audio Coding 3
Расширение режима : CM (complete main)
Параметр Endianness формата : Big
Идентификатор кодека : A_AC3
Продолжительность : 1 ч. 33 м.
Вид битрейта : Постоянный
Битрейт : 384 Кбит/сек
Каналы : 6 каналов
Расположение каналов : Front: L C R, Side: L R, LFE
Частота : 48,0 КГц
Битовая глубина : 16 бит
Метод сжатия : С потерями
Размер потока : 257 Мбайт (6%)
Заголовок : Amedia
Язык : Russian
Default : Да
Forced : Да

Аудио #2
Идентификатор : 3
Формат : DTS
Формат/Информация : Digital Theater Systems
Режим : 16
Параметр Endianness формата : Big
Идентификатор кодека : A_DTS
Продолжительность : 1 ч. 33 м.
Вид битрейта : Постоянный
Битрейт : 1509 Кбит/сек
Каналы : 6 каналов
Расположение каналов : Front: L C R, Side: L R, LFE
Частота : 48,0 КГц
Битовая глубина : 24 бит
Метод сжатия : С потерями
Размер потока : 1009 Мбайт (22%)
Язык : English
Default : Нет
Forced : Нет

Текст #1
Идентификатор : 4
Формат : UTF-8
Идентификатор кодека : S_TEXT/UTF8
Идентификатор кодека/Информация : UTF-8 Plain Text
Заголовок : pinakolada
Язык : Russian
Default : Нет
Forced : Нет

Текст #2
Идентификатор : 5
Формат : UTF-8
Идентификатор кодека : S_TEXT/UTF8
Идентификатор кодека/Информация : UTF-8 Plain Text
Язык : Russian
Default : Нет
Forced : Нет

Меню
00:00:00.000 : en:00:00:00.000
00:08:50.363 : en:00:08:50.363
00:18:10.673 : en:00:18:10.673
00:23:20.357 : en:00:23:20.357
00:27:59.636 : en:00:27:59.636
00:32:11.680 : en:00:32:11.680
00:39:04.759 : en:00:39:04.759
00:51:46.312 : en:00:51:46.312
00:59:15.427 : en:00:59:15.427
01:08:56.632 : en:01:08:56.632
01:17:50.040 : en:01:17:50.040
01:25:21.408 : en:01:25:21.408

загрузка...
Правила, инструкции, FAQ!!!
Торрент  Добавлен [27 янв 2014, 18:24] Скачать торрент
Скачать торрент
[ Размер 22.89 КБ / Просмотров 9 ]

Статус  
 
Размер  4.48 ГБ
Приватный: Нет (DHT включён)
.torrent скачан  4
Как залить торрент? | Как скачать Torrent? | Как смотреть и слушать онлайн?  


     Отправить личное сообщение
   
Страница 1 из 1
Показать сообщения за:  Поле сортировки  
Начать новую тему Ответить на тему

   Похожие торренты   Автор   Ответы   Просмотры   Последнее сообщение 
В этой теме нет новых непрочитанных сообщений. Скачать торрент Король Артур / King Arthur (Антуан Фукуа / Antoine Fuqua) [2004, приключения, исторический, BDRip] [Режиссерская версия / Director's Cut] DUB + Original (Eng) + Subs (rus, eng)

в форуме Приключения, Размер: 2.62 ГБ, Здоровье: 0%

Anonymous

0
0|0

72
0

24 апр 2014, 14:08

Anonymous Перейти к последнему сообщению

В этой теме нет новых непрочитанных сообщений. Скачать торрент Проверен Grant Allen, Arthur Conan Doyle/Грант Аллен, Артур Конан Дойл - Hilda Wade, a Woman with Tenacity of Purpose/Дело врача [2012, DjVu, RUS]

в форуме Детективы и Боевики, Размер: 4.08 МБ, Здоровье: 100%

Anonymous

0
1|0

9
0

09 сен 2016, 00:17

Anonymous Перейти к последнему сообщению

В этой теме нет новых непрочитанных сообщений. Скачать торрент Проверен Hailey Arthur / Хейли Артур - Сильнодействующее лекарство [2000, PDF/DjVu, RUS]

в форуме Зарубежная литература (XX и XXI век), Размер: 33.88 МБ, Здоровье: 100%

Anonymous

0
9|3

0
0

08 сен 2016, 19:18

Anonymous Перейти к последнему сообщению

В этой теме нет новых непрочитанных сообщений. Скачать торрент Проверен Arthur Gill / Артур Гилл - Программирование на языке ассемблера для PDP-11 [1983, PDF, RUS]

в форуме Веб-дизайн и программирование, Размер: 10.1 МБ, Здоровье: 0%

Anonymous

0
0|0

4
0

22 окт 2016, 13:11

Anonymous Перейти к последнему сообщению

В этой теме нет новых непрочитанных сообщений. Скачать торрент Проверен Артур Хейли / Arthur Hailey - Собрание сочинений (11 книг) [1958-1997, FB2, RUS]

в форуме Зарубежная литература (XX и XXI век), Размер: 15.15 МБ, Здоровье: 100%

Anonymous

0
35|12

9
1

08 сен 2016, 19:57

Anonymous Перейти к последнему сообщению



Сейчас этот форум просматривают: нет зарегистрированных пользователей и гости: 1


Вы не можете начинать темы
Вы не можете отвечать на сообщения
Вы не можете редактировать свои сообщения
Вы не можете удалять свои сообщения
Вы не можете добавлять вложения

Перейти:  

!ВНИМАНИЕ!
 Ресурс не предоставляет электронные версии произведений, а занимается лишь коллекционированием и каталогизацией ссылок, присылаемых и публикуемых на форуме нашими читателями. Если вы являетесь правообладателем какого-либо представленного материала и не желаете чтобы ссылка на него находилась в нашем каталоге, свяжитесь с нами и мы незамедлительно удалим её. Файлы для обмена на трекере предоставлены пользователями сайта, и администрация не несёт ответственности за их содержание. Просьба не заливать файлы, защищенные авторскими правами, а также файлы нелегального содержания!