На всех торрентах на трекере установлена скидка на скачивание в размере 100 процентов(а).
 Возможность скачивания торрента НЕ зависит от ограничений при низком ратио, низком аплоаде, требуемом ратио или требуемом аплоаде.


Начать новую тему Ответить на тему
Статистика раздачи
Размер: 4.56 ГБ | Добавлен: 26 янв 2014, 16:45 | Скачали: 0
Сидеров: 0  [0 байт/сек]    Личеров: 0  [0 байт/сек]
Пред. тема | След. тема 

Автор
Сообщение

СообщениеДобавлено: 26 янв 2014, 16:45 

Название: Танго и Кэш
Оригинальное название: Tango & Cash
Год выхода: 1989
Жанр: Боевик, комедия
Режиссер: Андрей Кончаловский, Альберт Магноли

В ролях: Сильвестр Сталлоне, Курт Рассел, Тери Хэтчер, Джек Пэланс, Брайон Джеймс, Джеймс Хонг, Марк Алаймо, Филип Тан, Майкл Дж. Поллард, Роберт З’Дар, Льюис Аркетт, Эдвард Банкер, Лесли Моррис, Рой Броксмит, Сьюзан Кребс, Дэвид Бирд, Ричард Фэнси, Джерри Мартинез, Майкл Джитер, Бинг Расселл, Альфонсе Уолтер, Питер Стенслэнд, Фил Рубенштейн, Элизабет Санг, Клинт Ховард

О фильме:
Рэй Танго и Гэйб Кэш — двое полицейских из отдела по борьбе с наркотиками Лос-Анджелеса. Они работают в разных участках и, по натуре наделённые совершенно разными характерами, постоянно соперничают друг с другом. Они оба охотятся за крупным международным преступником Ивом Перре и в связи с этим волей-неволей становятся напарниками. Перре смертельно надоела эта парочка и он подставляет их, подбросив труп и подстроив им причастность к убийству. Танго и Кэш арестованы. Для того, чтобы остановить Перре и восстановить своё доброе имя, они вынуждены организовать побег из тюрьмы…



Страна: США
Студия: Warner Bros. Pictures, Guber-Peters Company
Продолжительность: 01:43:46
Перевод: Дублированный, профессиональный (многоголосый закадровый), авторский (одноголосый закадровый)


Кодек: h.264
Качество: BDRip-AVC
Видео: 3128 Кбит/с, 1024x432, 23.976 кадр/с

Звук:
• №1: Русский (АС3, 6 ch, 384 Кбит/с) Дублированный [Мост-Видео]
• №2: Русский (АС3, 2 ch, 192 Кбит/с) Профессиональный многоголосый [НТВ]
• №3: Русский (АС3, 6 ch, 384 Кбит/с) Авторский одноголосый [Андрей Гаврилов]
• №4: Английский (АС3, 6 ch, 384 Кбит/с)
Отдельно:
• №5: Русский (АС3, 2 ch, 192 Кбит/с) Дублированный [Варус-Видео]
• №6: Русский (АС3, 2 ch, 192 Кбит/с) Профессиональный многоголосый [REN-TV]
• №7: Русский (АС3, 6 ch, 384 Кбит/с) Авторский одноголосый [Василий Горчаков]
• №8: Русский (АС3, 6 ch, 384 Кбит/с) Авторский одноголосый [Вартан Дохалов]
• №9: Русский (АС3, 6 ch, 384 Кбит/с) Авторский одноголосый [Григорий Либергал]
• №10: Украинский (АС3, 2 ch, 192 Кбит/с) Профессиональный двухголосый

Субтитры: Руссские, английские

--------------------------------------------------------------------------
x264 [info]: frame I:1120 Avg QP:16.99 size: 65579
x264 [info]: frame P:31827 Avg QP:19.52 size: 29584
x264 [info]: frame B:116331 Avg QP:21.14 size: 12787
--------------------------------------------------------------------------

Полное имя : Tango.and.Cash.1989.x264.BDRip-AVC.0ptimus.mkv
Формат : Matroska
Версия формата : Version 2
Размер файла : 3,31 Гбайт
Продолжительность : 1 ч. 43 м.
Общий поток : 4557 Кбит/сек
Название фильма : Танго и Кэш | Tango & Cash [1989] -=BDRip (AVC) by 0ptimus=-
Дата кодирования : UTC 2014-01-26 08:07:08
Программа кодирования : mkvmerge v6.6.0 ('The Edge Of The In Between') built on Dec 1 2013 17:55:00
Библиотека кодирования : libebml v1.3.0 + libmatroska v1.4.1

Видео
Идентификатор : 1
Формат : AVC
Формат/Информация : Advanced Video Codec
Профиль формата : High@L4.1
Параметр CABAC формата : Да
Параметр ReFrames формата : 9 кадров
Идентификатор кодека : V_MPEG4/ISO/AVC
Продолжительность : 1 ч. 43 м.
Битрейт : 3218 Кбит/сек
Ширина : 1024 пикселя
Высота : 432 пикселя
Соотношение сторон : 2,40:1
Режим частоты кадров : Постоянный
Частота кадров : 23,976 кадра/сек
Цветовое пространство : YUV
Субдискретизация насыщенности : 4:2:0
Битовая глубина : 8 бит
Тип развёртки : Прогрессивная
Бит/(Пиксели*Кадры) : 0.303
Размер потока : 2,27 Гбайт (69%)
Заголовок : Rip by 0ptimus
Библиотека кодирования : x264 core 129 r2245 bc13772
Настройки программы : cabac=1 / ref=9 / deblock=1:-3:-3 / analyse=0x3:0x113 / me=umh / subme=11 / psy=1 / psy_rd=1.00:0.20 / mixed_ref=1 / me_range=32 / chroma_me=1 / trellis=2 / 8x8dct=1 / cqm=0 / deadzone=21,11 / fast_pskip=0 / chroma_qp_offset=-3 / threads=4 / lookahead_threads=1 / sliced_threads=0 / nr=0 / decimate=0 / interlaced=0 / bluray_compat=0 / constrained_intra=0 / bframes=14 / b_pyramid=2 / b_adapt=2 / b_bias=0 / direct=3 / weightb=1 / open_gop=0 / weightp=2 / keyint=240 / keyint_min=23 / scenecut=40 / intra_refresh=0 / rc_lookahead=40 / rc=2pass / mbtree=0 / bitrate=3218 / ratetol=1.0 / qcomp=0.60 / qpmin=0 / qpmax=69 / qpstep=4 / cplxblur=20.0 / qblur=0.5 / vbv_maxrate=50000 / vbv_bufsize=50000 / nal_hrd=none / ip_ratio=1.40 / pb_ratio=1.30 / aq=1:1.00
Язык : English
Default : Да
Forced : Да

Аудио #1
Идентификатор : 2
Формат : AC-3
Формат/Информация : Audio Coding 3
Расширение режима : CM (complete main)
Параметр Endianness формата : Big
Идентификатор кодека : A_AC3
Продолжительность : 1 ч. 43 м.
Вид битрейта : Постоянный
Битрейт : 384 Кбит/сек
Каналы : 6 каналов
Расположение каналов : Front: L C R, Side: L R, LFE
Частота : 48,0 КГц
Битовая глубина : 16 бит
Метод сжатия : С потерями
Размер потока : 285 Мбайт (8%)
Заголовок : Дублированный [Мост-Видео] AC3 5.1 @ 384 kbps
Язык : Russian
Default : Да
Forced : Да

Аудио #2
Идентификатор : 3
Формат : AC-3
Формат/Информация : Audio Coding 3
Расширение режима : CM (complete main)
Параметр Endianness формата : Big
Идентификатор кодека : A_AC3
Продолжительность : 1 ч. 43 м.
Вид битрейта : Постоянный
Битрейт : 192 Кбит/сек
Каналы : 2 канала
Расположение каналов : Front: L R
Частота : 48,0 КГц
Битовая глубина : 16 бит
Метод сжатия : С потерями
Размер потока : 143 Мбайт (4%)
Заголовок : Многоголосый закадровый [НТВ] AC3 2.0 @ 192 kbps
Язык : Russian
Default : Нет
Forced : Нет

Аудио #3
Идентификатор : 4
Формат : AC-3
Формат/Информация : Audio Coding 3
Расширение режима : CM (complete main)
Параметр Endianness формата : Big
Идентификатор кодека : A_AC3
Продолжительность : 1 ч. 43 м.
Вид битрейта : Постоянный
Битрейт : 384 Кбит/сек
Каналы : 6 каналов
Расположение каналов : Front: L C R, Side: L R, LFE
Частота : 48,0 КГц
Битовая глубина : 16 бит
Метод сжатия : С потерями
Размер потока : 285 Мбайт (8%)
Заголовок : Авторский [Андрей Гаврилов] AC3 5.1 @ 384 kbps
Язык : Russian
Default : Нет
Forced : Нет

Аудио #4
Идентификатор : 5
Формат : AC-3
Формат/Информация : Audio Coding 3
Расширение режима : CM (complete main)
Параметр Endianness формата : Big
Идентификатор кодека : A_AC3
Продолжительность : 1 ч. 43 м.
Вид битрейта : Постоянный
Битрейт : 384 Кбит/сек
Каналы : 6 каналов
Расположение каналов : Front: L C R, Side: L R, LFE
Частота : 48,0 КГц
Битовая глубина : 16 бит
Метод сжатия : С потерями
Размер потока : 285 Мбайт (8%)
Заголовок : AC3 5.1 @ 384 kbps
Язык : English
Default : Нет
Forced : Нет

Текст #1
Идентификатор : 6
Формат : UTF-8
Идентификатор кодека : S_TEXT/UTF8
Идентификатор кодека/Информация : UTF-8 Plain Text
Язык : Russian
Default : Нет
Forced : Нет

Текст #2
Идентификатор : 7
Формат : UTF-8
Идентификатор кодека : S_TEXT/UTF8
Идентификатор кодека/Информация : UTF-8 Plain Text
Язык : English
Default : Нет
Forced : Нет

Меню
00:00:00.000 : :Tango Goes Trucking
00:05:07.849 : :Cash's Unexpected Company
00:08:50.821 : :Brotherly Concern
00:10:55.946 : :English 101
00:13:57.711 : :A Mouse Trap
00:17:33.135 : :The Setup
00:23:08.220 : :Evidence; on Trial
00:25:49.756 : :Making a Statement
00:30:26.866 : :Shower Repartee
00:33:43.146 : :Welcoming Parade
00:35:00.014 : :Bunkmates
00:36:40.281 : :A Jailed Cop's Nightmare
00:41:49.131 : :Shocking Treatment
00:43:55.883 : :An Escape Plan
00:47:40.107 : :Busting Out
00:53:39.591 : :High-Wire Act
00:57:29.487 : :High-Tech with Owen
00:59:59.971 : :Goodbye, Wyler
01:01:41.030 : :Sounding Out Skinner
01:03:43.736 : :The Cleopatra Club
01:07:34.091 : :His Feminine Side
01:08:53.879 : :Tangling at Tango's
01:15:46.375 : :Rooftop Roughhouse with Requin
01:17:42.991 : :Bad Cop, Worse Cop
01:20:02.839 : :The Rv From Hell
01:21:51.781 : :Stakeout
01:23:56.448 : :Crashing Perret's Compound
01:28:39.647 : :Perret's Inner Sanctum
01:32:22.453 : :Requin on a Rampage
01:35:14.166 : :Done in By Mirrors
01:37:09.865 : :"You Guys Work Well Together"/End Credits

Мост-Видео: Д.Матвеев, Л.Белозорович, Е.Борзунова, Б.Быстров, Е.Астафьева, В.Куприянов, В.Баранов, М.Лебедев, О.Куценко, В.Ратченко

Варус-Видео: Д.Матвеев, Л.Белозорович, Л.Ильена, В.Маландин, В.Петров, И.Акулова, А.Булдаков, Ю.Саранцев, В.Канафонтов, А.Вдовин, О.Голубицкий, В.Конкин, Ю.Моляров

НТВ: Л.Гнилова, Б.Миронов, А.Ярославцев




Релиз от:
загрузка...
Правила, инструкции, FAQ!!!
Торрент  Добавлен [26 янв 2014, 16:45] Скачать торрент
Скачать торрент
[ Размер 24.57 КБ / Просмотров 6 ]

Статус  
 
Размер  4.56 ГБ
Приватный: Нет (DHT включён)
.torrent скачан  0
Как залить торрент? | Как скачать Torrent? | Как смотреть и слушать онлайн?  


     Отправить личное сообщение
   
Страница 1 из 1
Показать сообщения за:  Поле сортировки  
Начать новую тему Ответить на тему

   Похожие торренты   Автор   Ответы   Просмотры   Последнее сообщение 
В этой теме нет новых непрочитанных сообщений. Скачать торрент Танго и Кэш / Tango & Cash (1989) HDRip | D

в форуме Боевики, Размер: 745.63 МБ, Здоровье: 100%

Anonymous

0
2|0

41
145

09 мар 2014, 09:22

Anonymous Перейти к последнему сообщению

В этой теме нет новых непрочитанных сообщений. Скачать торрент Проверен Аргентинское танго Juan Carlos Copes y Johana Copes | (Tango Argentino - Juan Carlos Copes y Johana Copes - curso - Didactico De Tango y Milonga & Tango Show 2003) [2003]

в форуме Интерактивные обучающие и развивающие материалы, Размер: 1.17 ГБ, Здоровье: 100%

Anonymous

0
2|2

31
0

28 дек 2015, 22:50

Anonymous Перейти к последнему сообщению

В этой теме нет новых непрочитанных сообщений. Скачать торрент Проверен [SACD-R][OF] Astor Piazzolla - The Rough Dancer And The Cyclical Night (Tango Apasionado) - 1989/2009 (Tango)

в форуме Hi-Res stereo (Джаз и Блюз), Размер: 1.67 ГБ, Здоровье: 100%

Anonymous

0
9|3

15
0

27 авг 2016, 13:00

Anonymous Перейти к последнему сообщению

В этой теме нет новых непрочитанных сообщений. Скачать торрент Проверен (Latin / Latin Pop / Tango) Dyango - Tango - 1989, FLAC (image+.cue) lossless

в форуме Зарубежная музыка, Размер: 217.03 МБ, Здоровье: 0%

Anonymous

0
0|0

3
0

12 авг 2016, 20:41

Anonymous Перейти к последнему сообщению

В этой теме нет новых непрочитанных сообщений. Скачать торрент Проверен Ансамбль Мелодия - Ансамбль Мелодия играет танго Оскара Строка (1979) [FLAC 2.0 24/192|traks(Vinil-Rip)]<Tango>

в форуме Vinyl-Rip и Hand-Made, Размер: 1.43 ГБ, Здоровье: 90%

Anonymous

0
9|10

74
4

08 фев 2015, 00:08

Anonymous Перейти к последнему сообщению



Сейчас этот форум просматривают: нет зарегистрированных пользователей и гости: 2


Вы не можете начинать темы
Вы не можете отвечать на сообщения
Вы не можете редактировать свои сообщения
Вы не можете удалять свои сообщения
Вы не можете добавлять вложения

Перейти:  

!ВНИМАНИЕ!
 Ресурс не предоставляет электронные версии произведений, а занимается лишь коллекционированием и каталогизацией ссылок, присылаемых и публикуемых на форуме нашими читателями. Если вы являетесь правообладателем какого-либо представленного материала и не желаете чтобы ссылка на него находилась в нашем каталоге, свяжитесь с нами и мы незамедлительно удалим её. Файлы для обмена на трекере предоставлены пользователями сайта, и администрация не несёт ответственности за их содержание. Просьба не заливать файлы, защищенные авторскими правами, а также файлы нелегального содержания!