На всех торрентах на трекере установлена скидка на скачивание в размере 100 процентов(а).
 Возможность скачивания торрента НЕ зависит от ограничений при низком ратио, низком аплоаде, требуемом ратио или требуемом аплоаде.


Начать новую тему Ответить на тему
Статистика раздачи
Размер: 4.23 ГБ | Добавлен: 25 янв 2014, 19:08 | Скачали: 0
Сидеров: 0  [0 байт/сек]    Личеров: 0  [0 байт/сек]
Пред. тема | След. тема 

Автор
Сообщение

СообщениеДобавлено: 25 янв 2014, 19:08 

Название: На дороге
Оригинальное название: On the Road
Год выхода: 2012
Жанр: Драма, приключения
Режиссер: Уолтер Саллес

В ролях: Гаррет Хедлунд, Сэм Райли, Кристен Стюарт, Эми Адамс, Том Стёрридж, Дэнни Морган, Алиси Брага, Элизабет Мосс, Кирстен Данст, Вигго Мортенсен, Стив Бушеми, Терренс Ховард, Жизель Итье, Каньехтио Хорн, Майкл Сарразин, Мэдисон Вульф, Ким Баббс, Сара Аллен, Джо Крест, Джованна Закариас, Джэйк Ла Ботц, Коати Мунди, Ларри Дэй, Рокки Маркетт, Артур Холден, Эмили Д. Хейли, Рикардо Андрес, Джои Клейн, Элисон Лодер, Сона Татоян, Грег Крамер, Тетчена Белланж, Даниела Вонг, Бронуэн Мэнтел, Дэн Бирн, Клара Фьюри, Джеффри Ти Фергюсон, Бенни Белл, Вероника Лауд, Шон Дж. Диллинхэм, Патрик Костильо, Дэвид Гоу

О фильме: После смерти отца начинающий нью-йоркский писатель Сэл Парадайз знакомится с молодым и очаровательным Дином Мориарти, только что вышедшим из тюрьмы и женатым на соблазнительной красотке Марилу. Они мгновенно становятся неразлучными друзьями. Стремясь к свободе, Сэл, Дин и Марилу порывают с условностями жизни и отправляются в путешествие навстречу миру, людям и самим себе.



Страна: Франция, Великобритания, США, Бразилия
Студия: MK2 Productions, American Zoetrope, Jerry Leider Company, France 2 Cinema, Canal+ [fr]
Продолжительность: 02:19:42
Перевод: Дублированный + оригинал


Кодек: MPEG-4 AVC
Качество: BDRip-AVC
Видео: 3500 Кбит/с, 1024х436, 24.000 кадр/с
Звук:
Аудио #1: Русский (AC3, 6 ch, 384 Кбит/с) / Дублированный
Аудио #2: Английский (AC3, 6 ch, 448 Кбит/с)
Субтитры: Русские, английские

Семпл

Общее
Уникальный идентификатор                 : 247462516892237717605544727804361816796 (0xBA2B8C1157932754810599ABD8B7BADC)
Полное имя                               : F:3Films FРелизыNa.doroge.2012.x264.BDRip.AVC.MediaClub.mkv
Формат                                   : Matroska
Версия формата                           : Version 4 / Version 2
Размер файла                             : 4,23 Гбайт
Продолжительность                        : 2 ч. 19 м.
Общий поток                              : 4330 Кбит/сек
Название фильма                          : -= MediaClub =- rip by Lefevr
Дата кодирования                         : UTC 2014-01-23 12:41:51
Программа кодирования                    : mkvmerge v6.6.0 ('The Edge Of The In Between') built on Dec  1 2013 17:55:00
Библиотека кодирования                   : libebml v1.3.0 + libmatroska v1.4.1

Видео
Идентификатор                            : 1
Формат                                   : AVC
Формат/Информация                        : Advanced Video Codec
Профиль формата                          : High@L4.1
Параметр CABAC формата                   : Да
Параметр ReFrames формата                : 9 кадров
Идентификатор кодека                     : V_MPEG4/ISO/AVC
Продолжительность                        : 2 ч. 19 м.
Битрейт                                  : 3500 Кбит/сек
Ширина                                   : 1024 пикселя
Высота                                   : 436 пикселей
Соотношение сторон                       : 2,35:1
Режим частоты кадров                     : Постоянный
Частота кадров                           : 24,000 кадра/сек
Цветовое пространство                    : YUV
Субдискретизация насыщенности            : 4:2:0
Битовая глубина                          : 8 бит
Тип развёртки                            : Прогрессивная
Бит/(Пиксели*Кадры)                      : 0.327
Размер потока                            : 3,33 Гбайт (79%)
Заголовок                                : Na.doroge.2012.x264.BDRip.AVC.MediaClub
Библиотека кодирования                   : x264 core 130 r2273 b3065e6
Настройки программы                      : cabac=1 / ref=9 / deblock=1:-2:-1 / analyse=0x3:0x133 / me=umh / subme=11 / psy=1 / psy_rd=1.00:0.15 / mixed_ref=1 / me_range=32 / chroma_me=1 / trellis=2 / 8x8dct=1 / cqm=0 / deadzone=21,11 / fast_pskip=0 / chroma_qp_offset=-3 / threads=6 / lookahead_threads=1 / sliced_threads=0 / nr=0 / decimate=0 / interlaced=0 / bluray_compat=0 / constrained_intra=0 / bframes=8 / b_pyramid=2 / b_adapt=2 / b_bias=0 / direct=3 / weightb=1 / open_gop=0 / weightp=2 / keyint=240 / keyint_min=23 / scenecut=40 / intra_refresh=0 / rc=2pass / mbtree=0 / bitrate=3500 / ratetol=1.0 / qcomp=0.60 / qpmin=0 / qpmax=69 / qpstep=4 / cplxblur=20.0 / qblur=0.5 / ip_ratio=1.40 / pb_ratio=1.30 / aq=1:1.00
Язык                                     : English
Default                                  : Да
Forced                                   : Нет

Аудио #1
Идентификатор                            : 2
Формат                                   : AC-3
Формат/Информация                        : Audio Coding 3
Расширение режима                        : CM (complete main)
Параметр Endianness формата              : Big
Идентификатор кодека                     : A_AC3
Продолжительность                        : 2 ч. 19 м.
Вид битрейта                             : Постоянный
Битрейт                                  : 384 Кбит/сек
Каналы                                   : 6 каналов
Расположение каналов                     : Front: L C R, Side: L R, LFE
Частота                                  : 48,0 КГц
Битовая глубина                          : 16 бит
Метод сжатия                             : С потерями
Размер потока                            : 384 Мбайт (9%)
Заголовок                                : TRACK_01_DUB_RUS
Язык                                     : Russian
Default                                  : Да
Forced                                   : Да

Аудио #2
Идентификатор                            : 3
Формат                                   : AC-3
Формат/Информация                        : Audio Coding 3
Расширение режима                        : CM (complete main)
Параметр Endianness формата              : Big
Идентификатор кодека                     : A_AC3
Продолжительность                        : 2 ч. 19 м.
Вид битрейта                             : Постоянный
Битрейт                                  : 448 Кбит/сек
Каналы                                   : 6 каналов
Расположение каналов                     : Front: L C R, Side: L R, LFE
Частота                                  : 48,0 КГц
Битовая глубина                          : 16 бит
Метод сжатия                             : С потерями
Размер потока                            : 448 Мбайт (10%)
Заголовок                                : TRACK_02_ORIGINAL_ENG
Язык                                     : English
Default                                  : Нет
Forced                                   : Нет

Текст #1
Идентификатор                            : 4
Формат                                   : UTF-8
Идентификатор кодека                     : S_TEXT/UTF8
Идентификатор кодека/Информация          : UTF-8 Plain Text
Заголовок                                : TEXT_01_SUB_RUS
Язык                                     : Russian
Default                                  : Нет
Forced                                   : Нет

Текст #2
Идентификатор                            : 5
Формат                                   : UTF-8
Идентификатор кодека                     : S_TEXT/UTF8
Идентификатор кодека/Информация          : UTF-8 Plain Text
Заголовок                                : TEXT_02_SUB_ENG
Язык                                     : English
Default                                  : Нет
Forced                                   : Нет

Меню
00:00:00.000                             : en:Chapter 01
00:12:04.083                             : en:Chapter 02
00:22:17.833                             : en:Chapter 03
00:32:01.166                             : en:Chapter 04
00:44:21.958                             : en:Chapter 05
00:56:19.250                             : en:Chapter 06
01:04:28.791                             : en:Chapter 07
01:14:48.125                             : en:Chapter 08
01:28:41.416                             : en:Chapter 09
01:39:58.416                             : en:Chapter 10
01:51:41.500                             : en:Chapter 11
02:04:02.583                             : en:Chapter 12
02:19:41.790                             : en:Chapter 13

x264 [info]: frame I:1360  Avg QP:16.71  size: 82017
x264 [info]: frame P:43926 Avg QP:19.61  size: 34275
x264 [info]: frame B:155883 Avg QP:20.90  size: 13123

• Сохранены оригинальные чаптеры как на Blu-ray.

• За помощь в подготовке релиза спасибо Константину - Painter  и Виталию - neni
• За исходник спасибо HDClub




Релиз от: | Автор рипа:
загрузка...
Правила, инструкции, FAQ!!!
Торрент  Добавлен [25 янв 2014, 19:08] Скачать торрент
Скачать торрент
[ Размер 11.23 КБ / Просмотров 3 ]

Статус  
 
Размер  4.23 ГБ
Приватный: Нет (DHT включён)
.torrent скачан  0
Как залить торрент? | Как скачать Torrent? | Как смотреть и слушать онлайн?  


     Отправить личное сообщение
   
Страница 1 из 1
Показать сообщения за:  Поле сортировки  
Начать новую тему Ответить на тему

   Похожие торренты   Автор   Ответы   Просмотры   Последнее сообщение 
В этой теме нет новых непрочитанных сообщений. Скачать торрент Проверен На дороге / On the Road (2012) BDRip [576p] iPad

в форуме Фильмы для iPod, iPhone, iPad, Размер: 3.33 ГБ, Здоровье: 100%

Anonymous

0
3|1

48
0

13 сен 2015, 01:19

Anonymous Перейти к последнему сообщению

В этой теме нет новых непрочитанных сообщений. Скачать торрент На дороге / On the Road (2012) BDRip 720p | Лицензия

в форуме 720p | 1080p, Размер: 8.42 ГБ, Здоровье: 100%

Anonymous

0
3|1

21
0

20 фев 2014, 13:15

Anonymous Перейти к последнему сообщению

В этой теме нет новых непрочитанных сообщений. Скачать торрент На дороге / On the Road (2012) HDRip | Лицензия

в форуме Драмы, Мелодрамы, Размер: 1.45 ГБ, Здоровье: 0%

Anonymous

0
0|0

24
0

25 янв 2014, 19:06

Anonymous Перейти к последнему сообщению

В этой теме нет новых непрочитанных сообщений. Скачать торрент Проверен Mumford And Sons - The Road To Red Rocks [2012, Folk-Rock, Country, Documentary, BDRip 1080p]

в форуме Концерты (HD-Video), Размер: 6.55 ГБ, Здоровье: 100%

Anonymous

0
1|0

1
0

23 окт 2016, 16:05

Anonymous Перейти к последнему сообщению

В этой теме нет новых непрочитанных сообщений. Скачать торрент Проверен Felix Scheinberger / Феликс Шайнбергер - Альбом ваших идей. Учимся делать эскизы в дороге [2012, PDF, RUS]

в форуме Рисунок, графический дизайн, Размер: 30.2 МБ, Здоровье: 100%

Anonymous

0
39|11

21
1

27 янв 2016, 22:16

Anonymous Перейти к последнему сообщению



Сейчас этот форум просматривают: нет зарегистрированных пользователей и гости: 2


Вы не можете начинать темы
Вы не можете отвечать на сообщения
Вы не можете редактировать свои сообщения
Вы не можете удалять свои сообщения
Вы не можете добавлять вложения

Перейти:  

!ВНИМАНИЕ!
 Ресурс не предоставляет электронные версии произведений, а занимается лишь коллекционированием и каталогизацией ссылок, присылаемых и публикуемых на форуме нашими читателями. Если вы являетесь правообладателем какого-либо представленного материала и не желаете чтобы ссылка на него находилась в нашем каталоге, свяжитесь с нами и мы незамедлительно удалим её. Файлы для обмена на трекере предоставлены пользователями сайта, и администрация не несёт ответственности за их содержание. Просьба не заливать файлы, защищенные авторскими правами, а также файлы нелегального содержания!