На всех торрентах на трекере установлена скидка на скачивание в размере 100 процентов(а).
 Возможность скачивания торрента НЕ зависит от ограничений при низком ратио, низком аплоаде, требуемом ратио или требуемом аплоаде.


Начать новую тему Ответить на тему
Статистика раздачи
Размер: 3.39 ГБ | Добавлен: 25 янв 2014, 10:12 | Скачали: 0
Сидеров: 0  [0 байт/сек]    Личеров: 0  [0 байт/сек]
Пред. тема | След. тема 

Автор
Сообщение

СообщениеДобавлено: 25 янв 2014, 10:12 

Название: Смерть ей к лицу
Оригинальное название: Death Becomes Her
Год выпуска: 1992
Жанр: Комедия, фантастика
Режиссер: Роберт Земекис

В ролях: Мэрил Стрип, Голди Хоун, Брюс Уиллис, Изабелла Росселлини, Иэн Огилви, Адам Сторке, Нэнси Фиш, Алайна Рид Холл, Мишель Джонсон, Мэри Эллен Трейнор, Дебра Джо Рапп

Описание: Интересно, а на что вы были бы готовы пойти, если бы лишились в очередной раз возможности выйти замуж по вине... лучшей подруги! И не важно, что в итоге мужчина сделал выбор, важно - что этому выбору способствовало! Но месть, как известно, блюдо которое подают холодным! Прошло время... и время пришло! Что за способ найдут бывшие подруги, чтобы наконец решить свой давний спор - кто с кем останется до тех пор, "пока смерть не разлучит нас"?



Страна: США
Студия: Universal Pictures
Продолжительность: 01:43:28
Перевод: Профессиональный многоголосый, авторский одноголосый


Качество: BDRip-AVC
Видео: MPEG-4 AVC, 3500 Кбит/с, 1024x554, 23.976 кадр/с
Аудио #1: Русский (AC3, 2 ch, 192 Кбит/с) / Профессиональный многоголосый (НТВ+)
Аудио #2: Русский (AC3, 2 ch, 192 Кбит/с) / Профессиональный многоголосый (Неизвестен)
Аудио #3: Русский (AC3, 2 ch, 192 Кбит/с) / Профессиональный многоголосый (ОРТ)
Аудио #4: Русский (AC3, 2 ch, 192 Кбит/с) / Профессиональный многоголосый (Премьер-Видео Фильм)
Аудио #5: Русский (AC3, 2 ch, 192 Кбит/с) / Авторский одноголосый (А. Михалёв)
Аудио #6: Английский (AC3, 2 ch, 224 Кбит/с)
Субтитры: Русские, английские

Семпл



Общее
Уникальный идентификатор : 224384450339944792426660676456749069491 (0xA8CEDF89CD91F3C9927844875F65F4B3)
Полное имя : D:Mои раздачиDeath.Becomes.Her.1992.BDRip.(AVC)-MediaClub.mkv
Формат : Matroska
Версия формата : Version 4 / Version 2
Размер файла : 3,39 Гбайт
Продолжительность : 1 ч. 43 м.
Общий поток : 4684 Кбит/сек
Дата кодирования : UTC 2014-01-25 06:15:21
Программа кодирования : mkvmerge v6.1.0 ('Old Devil') built on Mar 4 2013 09:10:42
Библиотека кодирования : libebml v1.3.0 + libmatroska v1.4.0

Видео
Идентификатор : 1
Формат : AVC
Формат/Информация : Advanced Video Codec
Профиль формата : High@L4.1
Параметр CABAC формата : Да
Параметр ReFrames формата : 9 кадров
Идентификатор кодека : V_MPEG4/ISO/AVC
Продолжительность : 1 ч. 43 м.
Битрейт : 3500 Кбит/сек
Ширина : 1024 пикселя
Высота : 554 пикселя
Соотношение сторон : 1,85:1
Режим частоты кадров : Постоянный
Частота кадров : 23,976 кадра/сек
Цветовое пространство : YUV
Субдискретизация насыщенности : 4:2:0
Битовая глубина : 8 бит
Тип развёртки : Прогрессивная
Бит/(Пиксели*Кадры) : 0.257
Размер потока : 2,46 Гбайт (73%)
Заголовок : -=MediaClub-kaspr=-
Библиотека кодирования : x264 core 130 r2273 b3065e6
Настройки программы : cabac=1 / ref=9 / deblock=1:-3:-3 / analyse=0x3:0x133 / me=umh / subme=11 / psy=1 / psy_rd=1.00:0.20 / mixed_ref=1 / me_range=48 / chroma_me=1 / trellis=2 / 8x8dct=1 / cqm=0 / deadzone=21,11 / fast_pskip=0 / chroma_qp_offset=-3 / threads=12 / lookahead_threads=3 / sliced_threads=0 / nr=0 / decimate=0 / interlaced=0 / bluray_compat=0 / constrained_intra=0 / bframes=10 / b_pyramid=2 / b_adapt=2 / b_bias=0 / direct=3 / weightb=1 / open_gop=0 / weightp=2 / keyint=240 / keyint_min=23 / scenecut=40 / intra_refresh=0 / rc=2pass / mbtree=0 / bitrate=3500 / ratetol=1.0 / qcomp=0.60 / qpmin=0 / qpmax=69 / qpstep=4 / cplxblur=20.0 / qblur=0.5 / ip_ratio=1.40 / pb_ratio=1.30 / aq=1:1.00
Default : Да
Forced : Нет

Аудио #1
Идентификатор : 2
Формат : AC-3
Формат/Информация : Audio Coding 3
Расширение режима : CM (complete main)
Параметр Endianness формата : Big
Идентификатор кодека : A_AC3
Продолжительность : 1 ч. 43 м.
Вид битрейта : Постоянный
Битрейт : 192 Кбит/сек
Каналы : 2 канала
Расположение каналов : Front: L R
Частота : 48,0 КГц
Битовая глубина : 16 бит
Метод сжатия : С потерями
Размер потока : 142 Мбайт (4%)
Заголовок : НТВ+
Язык : Russian
Default : Да
Forced : Нет

Аудио #2
Идентификатор : 3
Формат : AC-3
Формат/Информация : Audio Coding 3
Расширение режима : CM (complete main)
Параметр Endianness формата : Big
Идентификатор кодека : A_AC3
Продолжительность : 1 ч. 43 м.
Вид битрейта : Постоянный
Битрейт : 192 Кбит/сек
Каналы : 2 канала
Расположение каналов : Front: L R
Частота : 48,0 КГц
Битовая глубина : 16 бит
Метод сжатия : С потерями
Размер потока : 142 Мбайт (4%)
Заголовок : Неизвестен
Язык : Russian
Default : Нет
Forced : Нет

Аудио #3
Идентификатор : 4
Формат : AC-3
Формат/Информация : Audio Coding 3
Расширение режима : CM (complete main)
Параметр Endianness формата : Big
Идентификатор кодека : A_AC3
Продолжительность : 1 ч. 43 м.
Вид битрейта : Постоянный
Битрейт : 192 Кбит/сек
Каналы : 2 канала
Расположение каналов : Front: L R
Частота : 48,0 КГц
Битовая глубина : 16 бит
Метод сжатия : С потерями
Размер потока : 142 Мбайт (4%)
Заголовок : ОРТ
Язык : Russian
Default : Нет
Forced : Нет

Аудио #4
Идентификатор : 5
Формат : AC-3
Формат/Информация : Audio Coding 3
Расширение режима : CM (complete main)
Параметр Endianness формата : Big
Идентификатор кодека : A_AC3
Продолжительность : 1 ч. 43 м.
Вид битрейта : Постоянный
Битрейт : 192 Кбит/сек
Каналы : 2 канала
Расположение каналов : Front: L R
Частота : 48,0 КГц
Битовая глубина : 16 бит
Метод сжатия : С потерями
Размер потока : 142 Мбайт (4%)
Заголовок : Премьер-Видео Фильм
Язык : Russian
Default : Нет
Forced : Нет

Аудио #5
Идентификатор : 6
Формат : AC-3
Формат/Информация : Audio Coding 3
Расширение режима : CM (complete main)
Параметр Endianness формата : Big
Идентификатор кодека : A_AC3
Продолжительность : 1 ч. 43 м.
Вид битрейта : Постоянный
Битрейт : 192 Кбит/сек
Каналы : 2 канала
Расположение каналов : Front: L R
Частота : 48,0 КГц
Битовая глубина : 16 бит
Метод сжатия : С потерями
Размер потока : 142 Мбайт (4%)
Заголовок : Михалёв
Язык : Russian
Default : Нет
Forced : Нет

Аудио #6
Идентификатор : 7
Формат : AC-3
Формат/Информация : Audio Coding 3
Профиль формата : Dolby Digital
Расширение режима : CM (complete main)
Параметр Endianness формата : Big
Идентификатор кодека : A_AC3
Продолжительность : 1 ч. 43 м.
Вид битрейта : Постоянный
Битрейт : 224 Кбит/сек
Каналы : 2 канала
Расположение каналов : Front: L R
Частота : 48,0 КГц
Битовая глубина : 16 бит
Метод сжатия : С потерями
Размер потока : 166 Мбайт (5%)
Язык : English
Default : Нет
Forced : Нет

Текст #1
Идентификатор : 8
Формат : UTF-8
Идентификатор кодека : S_TEXT/UTF8
Идентификатор кодека/Информация : UTF-8 Plain Text
Язык : Russian
Default : Нет
Forced : Нет

Текст #2
Идентификатор : 9
Формат : UTF-8
Идентификатор кодека : S_TEXT/UTF8
Идентификатор кодека/Информация : UTF-8 Plain Text
Язык : English
Default : Нет
Forced : Нет

Меню
00:00:00.000 : en:Chapter 01
00:05:04.512 : en:Chapter 02
00:09:01.540 : en:Chapter 03
00:12:35.379 : en:Chapter 04
00:20:40.739 : en:Chapter 05
00:26:46.771 : en:Chapter 06
00:30:20.109 : en:Chapter 07
00:47:09.243 : en:Chapter 08
00:55:55.268 : en:Chapter 09
01:05:51.489 : en:Chapter 10
01:09:55.858 : en:Chapter 11
01:15:40.953 : en:Chapter 12
01:25:01.888 : en:Chapter 13
01:32:54.402 : en:Chapter 14
01:36:13.225 : en:Chapter 15
01:37:35.599 : en:Chapter 16


Релиз: |
загрузка...
Правила, инструкции, FAQ!!!
Торрент  Добавлен [25 янв 2014, 10:12] Скачать торрент
Скачать торрент
[ Размер 17.6 КБ / Просмотров 11 ]

Статус  
 
Размер  3.39 ГБ
Приватный: Нет (DHT включён)
.torrent скачан  0
Как залить торрент? | Как скачать Torrent? | Как смотреть и слушать онлайн?  


     Отправить личное сообщение
   
Страница 1 из 1
Показать сообщения за:  Поле сортировки  
Начать новую тему Ответить на тему

   Похожие торренты   Автор   Ответы   Просмотры   Последнее сообщение 
В этой теме нет новых непрочитанных сообщений. Скачать торрент Смерть ей к лицу / Death Becomes Her (1992) BDRip 720p | P, A

в форуме 720p | 1080p, Размер: 7 ГБ, Здоровье: 0%

Anonymous

0
0|0

30
0

24 янв 2014, 19:20

Anonymous Перейти к последнему сообщению

В этой теме нет новых непрочитанных сообщений. Скачать торрент Смерть ей к лицу / Death Becomes Her (Роберт Земекис / Robert Zemeckis) [1992 г., Комедия, фэнтези, HDTVRip]

в форуме Комедии, Размер: 1.46 ГБ, Здоровье: 0%

Anonymous

0
0|0

43
0

24 янв 2014, 19:49

Anonymous Перейти к последнему сообщению

В этой теме нет новых непрочитанных сообщений. Скачать торрент Проверен Маленькая смерть / The Little Death (2014) BDRip 1080p | L1

в форуме 720p | 1080p, Размер: 7.37 ГБ, Здоровье: 55%

Гость

0
59|106

63
75

31 янв 2015, 11:04

Гость Перейти к последнему сообщению

В этой теме нет новых непрочитанных сообщений. Скачать торрент Смерть на похоронах / Death at a Funeral (Нил Лабут / Neil LaBute) [2010, США, комедия, BDRip]

в форуме Комедии, Размер: 1.74 ГБ, Здоровье: 0%

Anonymous

0
0|0

46
0

16 апр 2014, 07:49

Anonymous Перейти к последнему сообщению

В этой теме нет новых непрочитанных сообщений. Скачать торрент Секс и 101 смерть / Sex and Death 101 (Дэниэл Уотерс / Daniel Waters) [2007, комедия, мелодрама, BDRip-AVC] MVO + Original + Sub (Eng)

в форуме 720p | 1080p, Размер: 2.9 ГБ, Здоровье: 100%

Anonymous

0
3|1

33
0

07 фев 2014, 11:41

Anonymous Перейти к последнему сообщению



Сейчас этот форум просматривают: нет зарегистрированных пользователей и гости: 1


Вы не можете начинать темы
Вы не можете отвечать на сообщения
Вы не можете редактировать свои сообщения
Вы не можете удалять свои сообщения
Вы не можете добавлять вложения

Перейти:  

!ВНИМАНИЕ!
 Ресурс не предоставляет электронные версии произведений, а занимается лишь коллекционированием и каталогизацией ссылок, присылаемых и публикуемых на форуме нашими читателями. Если вы являетесь правообладателем какого-либо представленного материала и не желаете чтобы ссылка на него находилась в нашем каталоге, свяжитесь с нами и мы незамедлительно удалим её. Файлы для обмена на трекере предоставлены пользователями сайта, и администрация не несёт ответственности за их содержание. Просьба не заливать файлы, защищенные авторскими правами, а также файлы нелегального содержания!