На всех торрентах на трекере установлена скидка на скачивание в размере 100 процентов(а).
 Возможность скачивания торрента НЕ зависит от ограничений при низком ратио, низком аплоаде, требуемом ратио или требуемом аплоаде.


Начать новую тему Ответить на тему
Статистика раздачи
Размер: 3.27 ГБ | Добавлен: 24 янв 2014, 19:13 | Скачали: 0
Сидеров: 2  [0 байт/сек]    Личеров: 2  [0 байт/сек]
Пред. тема | След. тема 

Автор
Сообщение

СообщениеДобавлено: 24 янв 2014, 19:13 

Название: Осиное гнездо
Оригинальное название: Nid de guepes / The Nest
Год выхода: 2002
Жанр: боевик, триллер, криминал
Режиссер: Флоран Эмилио Сири

В ролях: Сами Насери, Бенуа Мажимель, Надя Фарес, Паскаль Грегори, Сами Буажила, Ричард Саммел, Валерио Мастандреа, Марсаль Одон

О фильме:
Офицер спецназа тридцатилетняя Элен Лабори получает задание отконвоировать в здание суда знаменитого албанского мафиози Абедина Нексера, обвиняемого в распространении проституции и создании широкой европейской сети домов терпимости. Лабори понимает, что мафия попытается спасти своего лидера. Так и случилось: во время операции вооруженные люди Нексера нападают на Лабори и ее суперагентов. Изматывая полицейских бешеной погоней, бандиты загоняют их в ловушку — огромный промышленный склад. Смертельная игра в «кошки-мышки» начинается...



Страна: Франция
Студия: Canal+, Carrère Groupe, Cinémane Films, Cofimage 12, Embellie Productions, France 2 Cinéma, Gimages 4, Natexis Banques Populaires Images 2, Pathé Image Production, Pendrake Films, Procirep
Продолжительность: 01:47:16
Перевод: Дублированный


Кодек: h.264
Качество: BDRip-AVC
Видео: 3218 Кбит/с, 1024x436, 24.000 кадр/с

Звук:
• №1: Русский (АС3, 6 ch, 384 Кбит/с) Дублированный [Мосфильм]
• №2: Украинский (АС3, 6 ch, 384 Кбит/с) Профессиональный многоголосый [КІНО]
• №3: Французский (АС3, 6 ch, 384 Кбит/с)

Субтитры: Русские, английские

--------------------------------------------------------------------
x264 [info]: frame I:1469 Avg QP:16.66 size: 71879
x264 [info]: frame P:37657 Avg QP:19.57 size: 29693
x264 [info]: frame B:115339 Avg QP:21.95 size: 11843
--------------------------------------------------------------------

Полное имя : F:Nid.de.guepes.2002.х264.BDRip-AVC.0ptimus.mkv
Формат : Matroska
Версия формата : Version 2
Размер файла : 3,27 Гбайт
Продолжительность : 1 ч. 47 м.
Общий поток : 4367 Кбит/сек
Название фильма : Осиное гнездо | Nid de guepes (The Nest) [2002] -=BDRip (AVC) by 0ptimus=-
Дата кодирования : UTC 2014-01-22 14:03:44
Программа кодирования : mkvmerge v6.7.0 ('Back to the Ground') 32bit built on Jan 8 2014 15:03:17
Библиотека кодирования : libebml v1.3.0 + libmatroska v1.4.1

Видео
Идентификатор : 1
Формат : AVC
Формат/Информация : Advanced Video Codec
Профиль формата : High@L4.1
Параметр CABAC формата : Да
Параметр ReFrames формата : 9 кадров
Идентификатор кодека : V_MPEG4/ISO/AVC
Продолжительность : 1 ч. 47 м.
Битрейт : 3218 Кбит/сек
Ширина : 1024 пикселя
Высота : 436 пикселей
Соотношение сторон : 2,35:1
Режим частоты кадров : Постоянный
Частота кадров : 24,000 кадра/сек
Цветовое пространство : YUV
Субдискретизация насыщенности : 4:2:0
Битовая глубина : 8 бит
Тип развёртки : Прогрессивная
Бит/(Пиксели*Кадры) : 0.300
Размер потока : 2,34 Гбайт (72%)
Заголовок : Rip by 0ptimus
Библиотека кодирования : x264 core 132 r2310 76a5c3a
Настройки программы : cabac=1 / ref=9 / deblock=1:-3:-3 / analyse=0x3:0x113 / me=umh / subme=11 / psy=1 / psy_rd=1.00:0.20 / mixed_ref=1 / me_range=32 / chroma_me=1 / trellis=2 / 8x8dct=1 / cqm=0 / deadzone=21,11 / fast_pskip=0 / chroma_qp_offset=-3 / threads=4 / lookahead_threads=1 / sliced_threads=0 / nr=0 / decimate=0 / interlaced=0 / bluray_compat=0 / constrained_intra=0 / bframes=8 / b_pyramid=2 / b_adapt=2 / b_bias=0 / direct=3 / weightb=1 / open_gop=0 / weightp=2 / keyint=240 / keyint_min=24 / scenecut=40 / intra_refresh=0 / rc_lookahead=40 / rc=2pass / mbtree=0 / bitrate=3218 / ratetol=1.0 / qcomp=0.60 / qpmin=0 / qpmax=69 / qpstep=4 / cplxblur=20.0 / qblur=0.5 / vbv_maxrate=50000 / vbv_bufsize=50000 / nal_hrd=none / ip_ratio=1.40 / pb_ratio=1.30 / aq=1:1.00
Язык : English
Default : Да
Forced : Да

Аудио #1
Идентификатор : 2
Формат : AC-3
Формат/Информация : Audio Coding 3
Расширение режима : CM (complete main)
Параметр Endianness формата : Big
Идентификатор кодека : A_AC3
Продолжительность : 1 ч. 47 м.
Вид битрейта : Постоянный
Битрейт : 384 Кбит/сек
Каналы : 6 каналов
Расположение каналов : Front: L C R, Side: L R, LFE
Частота : 48,0 КГц
Битовая глубина : 16 бит
Метод сжатия : С потерями
Размер потока : 295 Мбайт (9%)
Заголовок : Дублированный [Мосфильм] AC3 5.1 @ 384 kbps
Язык : Russian
Default : Да
Forced : Да

Аудио #2
Идентификатор : 3
Формат : AC-3
Формат/Информация : Audio Coding 3
Расширение режима : CM (complete main)
Параметр Endianness формата : Big
Идентификатор кодека : A_AC3
Продолжительность : 1 ч. 47 м.
Вид битрейта : Постоянный
Битрейт : 384 Кбит/сек
Каналы : 6 каналов
Расположение каналов : Front: L C R, Side: L R, LFE
Частота : 48,0 КГц
Битовая глубина : 16 бит
Метод сжатия : С потерями
Размер потока : 295 Мбайт (9%)
Заголовок : Многоголосый закадровый [KIHO] AC3 5.1 @ 384 kbps
Язык : Ukrainian
Default : Нет
Forced : Нет

Аудио #3
Идентификатор : 4
Формат : AC-3
Формат/Информация : Audio Coding 3
Расширение режима : CM (complete main)
Параметр Endianness формата : Big
Идентификатор кодека : A_AC3
Продолжительность : 1 ч. 47 м.
Вид битрейта : Постоянный
Битрейт : 384 Кбит/сек
Каналы : 6 каналов
Расположение каналов : Front: L C R, Side: L R, LFE
Частота : 48,0 КГц
Битовая глубина : 16 бит
Метод сжатия : С потерями
Размер потока : 295 Мбайт (9%)
Заголовок : AC3 5.1 384 kbps
Язык : French
Default : Нет
Forced : Нет

Текст #1
Идентификатор : 5
Формат : UTF-8
Идентификатор кодека : S_TEXT/UTF8
Идентификатор кодека/Информация : UTF-8 Plain Text
Язык : Russian
Default : Нет
Forced : Нет

Текст #2
Идентификатор : 6
Формат : UTF-8
Идентификатор кодека : S_TEXT/UTF8
Идентификатор кодека/Информация : UTF-8 Plain Text
Язык : English
Default : Нет
Forced : Нет

Меню
00:00:00.000 : :Nid De Guepes
00:03:07.666 : :Banlieue De Strasbourg: Jeudi 14 Juillet
00:10:46.208 : :Abedin Nexhep
00:19:04.833 : :Accident Sur L'Autoroute
00:24:59.000 : :Le Cassie De L'Entrepot
00:32:30.625 : :Le Guet-Apens
00:38:40.000 : :Encercles
00:49:18.958 : :L'Attaque De L'Entrepot
00:59:33.208 : :S'Unir
01:08:16.125 : :La bague
01:16:09.833 : :Personne Ne Rentre, Personne Ne Sort
01:24:09.125 : :L'Attaque Finale
01:31:15.083 : :"Le Soleil, Mon Frere"
01:33:26.125 : :Par Le Sous-Sol
01:35:55.583 : :Les Survivants
01:40:15.208 : :Generique De Fin




Релиз от:
загрузка...
Правила, инструкции, FAQ!!!
Торрент  Добавлен [24 янв 2014, 19:13] Скачать торрент
Скачать торрент
[ Размер 33.39 КБ / Просмотров 9 ]

Статус  
 
Размер  3.27 ГБ
Приватный: Нет (DHT включён)
.torrent скачан  0
Как залить торрент? | Как скачать Torrent? | Как смотреть и слушать онлайн?  


     Отправить личное сообщение
   
Страница 1 из 1
Показать сообщения за:  Поле сортировки  
Начать новую тему Ответить на тему

   Похожие торренты   Автор   Ответы   Просмотры   Последнее сообщение 
В этой теме нет новых непрочитанных сообщений. Скачать торрент Осиное гнездо / Nid de guêpes (2002) BDRip-AVC

в форуме Боевики, Размер: 1.45 ГБ, Здоровье: 100%

Anonymous

0
10|0

13
6

24 янв 2014, 19:09

Anonymous Перейти к последнему сообщению

В этой теме нет новых непрочитанных сообщений. Скачать торрент Проверен Гнездо дракона в 3Д / Dragon Nest: Warriors' Dawn 3D (Юэфэн Сонг / Yuefeng Song) [2014, Мультфильм, Фэнтези, Приключения, Семейный, BDrip, 1080p] OverUnder / Вертикальная стереопара

в форуме 3D Мультфильмы, Размер: 11.05 ГБ, Здоровье: 0%

Anonymous

0
0|0

5
0

07 сен 2016, 18:01

Anonymous Перейти к последнему сообщению

В этой теме нет новых непрочитанных сообщений. Скачать торрент Проверен Гнездо дракона / Dragon Nest: Warriors' Dawn (2014) WEB-DLRip [576p] iPad

в форуме Фильмы для iPod, iPhone, iPad, Размер: 1.83 ГБ, Здоровье: 100%

Anonymous

0
9|1

57
0

13 сен 2015, 01:12

Anonymous Перейти к последнему сообщению

В этой теме нет новых непрочитанных сообщений. Скачать торрент Проверен Гнездо дракона в 3Д / Dragon Nest: Warriors' Dawn 3D (Юэфэн Сонг) [2014, мультфильм, фэнтези, приключения, семейный, Blu-Ray Disc, (Custom)] BD3D

в форуме 3D Мультфильмы, Размер: 31.1 ГБ, Здоровье: 0%

Anonymous

0
0|0

3
0

07 сен 2016, 17:46

Anonymous Перейти к последнему сообщению

В этой теме нет новых непрочитанных сообщений. Скачать торрент Проверен Гнездо дракона в 3Д / Dragon Nest: Warriors' Dawn 3D (Юэфэн Сонг / Yuefeng Song) [2014, Мультфильм, фэнтези, приключения, BDremux, 1080p] BD3D

в форуме 3D Мультфильмы, Размер: 24.97 ГБ, Здоровье: 0%

Anonymous

0
0|0

4
0

07 сен 2016, 17:56

Anonymous Перейти к последнему сообщению



Сейчас этот форум просматривают: нет зарегистрированных пользователей и гости: 1


Вы не можете начинать темы
Вы не можете отвечать на сообщения
Вы не можете редактировать свои сообщения
Вы не можете удалять свои сообщения
Вы не можете добавлять вложения

Перейти:  

!ВНИМАНИЕ!
 Ресурс не предоставляет электронные версии произведений, а занимается лишь коллекционированием и каталогизацией ссылок, присылаемых и публикуемых на форуме нашими читателями. Если вы являетесь правообладателем какого-либо представленного материала и не желаете чтобы ссылка на него находилась в нашем каталоге, свяжитесь с нами и мы незамедлительно удалим её. Файлы для обмена на трекере предоставлены пользователями сайта, и администрация не несёт ответственности за их содержание. Просьба не заливать файлы, защищенные авторскими правами, а также файлы нелегального содержания!