На всех торрентах на трекере установлена скидка на скачивание в размере 100 процентов(а).
 Возможность скачивания торрента НЕ зависит от ограничений при низком ратио, низком аплоаде, требуемом ратио или требуемом аплоаде.


Начать новую тему Ответить на тему
Статистика раздачи
Размер: 1.45 ГБ | Добавлен: 24 янв 2014, 19:09 | Скачали: 6
Сидеров: 10  [0 байт/сек]    Личеров: 0  [0 байт/сек]
Пред. тема | След. тема 

Автор
Сообщение

СообщениеДобавлено: 24 янв 2014, 19:09 

Название: Осиное гнездо
Оригинальное название: Nid de guêpes
Год выхода: 2002
Жанр: боевик, триллер, криминал
Режиссер: Флоран Эмилио Сири

В ролях: Сами Насери, Бенуа Мажимель, Надя Фарес, Паскаль Греггори, Сами Буажила, Анисия Узейман, Ричард Саммел, Валерио Мастандреа, Марсаль Одон, Мартин Амик...

О фильме:Элен Лабори 30 лет, она агент спецназа. Ее задание: сопровождать Абдэна Нексепа, крупную фигуру в албанской мафии. Этот опасный преступник обвиняется в создании широкой сети проституции и должен предстать перед европейским судом.

Четверг, 14-ое июля… Во время перевозки Абдэна наемные убийцы из его организации устраивают ночью засаду, чтобы вызволить своего шефа, но Лабори и ее людям удается ускользнуть от них вместе со своим заключенным и укрыться в складском ангаре в большой индустриальной зоне. Там они натыкаются на банду, проникшую туда с целью украсть компьютерное оборудование. И в это же время люди Нексепа окружают ангар…



Страна: Франция
Продолжительность: 01:47:16
Перевод: Дублированный


Кодек: x.264
Качество: BDRip-AVC
Видео: 1024x432 (2,40:1), 24 fps, 1493 kbps, 0.141 bit/pixel
Звук: 48 kHz, AC3 Dolby Digital, 6 ch, ~448.00 kbps
Семпл

&

Общее
Уникальный идентификатор : 176417578550280317193599019394898186948 (0x84B8CA2B64A6BFB2A88D885E2CFDD2C4)
Полное имя : D:Nid de guepes.2002.BDRip-AVC.mkv
Формат : Matroska
Версия формата : Version 4 / Version 2
Размер файла : 1,45 Гбайт
Продолжительность : 1 ч. 47 м.
Общий поток : 1938 Кбит/сек
Название фильма : Осиное гнездо / Nid de guêpes (2002) BDRip-AVC от Rulya74
Дата кодирования : UTC 2013-05-13 18:07:34
Программа кодирования : mkvmerge v6.2.0 ('Promised Land') built on Apr 28 2013 12:22:01
Библиотека кодирования : libebml v1.3.0 + libmatroska v1.4.0

Видео
Идентификатор : 1
Формат : AVC
Формат/Информация : Advanced Video Codec
Профиль формата : High@L4.1
Параметр CABAC формата : Да
Параметр ReFrames формата : 11 кадров
Идентификатор кодека : V_MPEG4/ISO/AVC
Продолжительность : 1 ч. 47 м.
Битрейт : 1493 Кбит/сек
Ширина : 1024 пикселя
Высота : 432 пикселя
Соотношение сторон : 2,40:1
Режим частоты кадров : Постоянный
Частота кадров : 24,000 кадра/сек
Цветовое пространство : YUV
Субдискретизация насыщенности : 4:2:0
Битовая глубина : 8 бит
Тип развёртки : Прогрессивная
Бит/(Пиксели*Кадры) : 0.141
Размер потока : 1,09 Гбайт (75%)
Библиотека кодирования : x264 core 132 r2310 76a5c3a
Настройки программы : cabac=1 / ref=11 / deblock=1:-3:-3 / analyse=0x3:0x113 / me=umh / subme=9 / psy=1 / psy_rd=1.06:0.02 / mixed_ref=1 / me_range=32 / chroma_me=1 / trellis=2 / 8x8dct=1 / cqm=0 / deadzone=21,11 / fast_pskip=0 / chroma_qp_offset=-3 / threads=4 / lookahead_threads=1 / sliced_threads=0 / nr=0 / decimate=1 / interlaced=0 / bluray_compat=0 / constrained_intra=0 / bframes=9 / b_pyramid=2 / b_adapt=2 / b_bias=0 / direct=1 / weightb=1 / open_gop=0 / weightp=2 / keyint=240 / keyint_min=22 / scenecut=40 / intra_refresh=0 / rc_lookahead=40 / rc=2pass / mbtree=1 / bitrate=1493 / ratetol=1.0 / qcomp=0.60 / qpmin=0 / qpmax=69 / qpstep=4 / cplxblur=20.0 / qblur=0.5 / vbv_maxrate=62500 / vbv_bufsize=78125 / nal_hrd=none / ip_ratio=1.40 / aq=1:1.00
Default : Да
Forced : Нет

Аудио
Идентификатор : 2
Формат : AC-3
Формат/Информация : Audio Coding 3
Расширение режима : CM (complete main)
Параметр Endianness формата : Big
Идентификатор кодека : A_AC3
Продолжительность : 1 ч. 47 м.
Вид битрейта : Постоянный
Битрейт : 448 Кбит/сек
Каналы : 6 каналов
Расположение каналов : Front: L C R, Side: L R, LFE
Частота : 48,0 КГц
Битовая глубина : 16 бит
Метод сжатия : С потерями
Размер потока : 344 Мбайт (23%)
Заголовок : Дублированный
Язык : Russian
Default : Да
Forced : Нет

загрузка...
Правила, инструкции, FAQ!!!
Торрент  Добавлен [24 янв 2014, 19:09] Скачать торрент
Скачать торрент
[ Размер 14.94 КБ / Просмотров 2 ]

Статус  
 
Размер  1.45 ГБ
Приватный: Нет (DHT включён)
.torrent скачан  6
Как залить торрент? | Как скачать Torrent? | Как смотреть и слушать онлайн?  


     Отправить личное сообщение
   
Страница 1 из 1
Показать сообщения за:  Поле сортировки  
Начать новую тему Ответить на тему

   Похожие торренты   Автор   Ответы   Просмотры   Последнее сообщение 
В этой теме нет новых непрочитанных сообщений. Скачать торрент Осиное гнездо / Nid de guepes / The Nest (2002) BDRip-AVC | D

в форуме Боевики, Размер: 3.27 ГБ, Здоровье: 100%

Anonymous

0
2|2

15
0

24 янв 2014, 19:13

Anonymous Перейти к последнему сообщению

В этой теме нет новых непрочитанных сообщений. Скачать торрент Проверен Гнездо дракона в 3Д / Dragon Nest: Warriors' Dawn 3D (Юэфэн Сонг / Yuefeng Song) [2014, Мультфильм, Фэнтези, Приключения, Семейный, BDrip, 1080p] OverUnder / Вертикальная стереопара

в форуме 3D Мультфильмы, Размер: 11.05 ГБ, Здоровье: 0%

Anonymous

0
0|0

5
0

07 сен 2016, 18:01

Anonymous Перейти к последнему сообщению

В этой теме нет новых непрочитанных сообщений. Скачать торрент Проверен Рюриковичи - Филимонов А.В. - Всеволод Большое Гнездо [1996, PDF/DjVu, RUS]

в форуме Русская литература, Размер: 22.51 МБ, Здоровье: 0%

Anonymous

0
0|0

0
0

07 сен 2016, 23:07

Anonymous Перейти к последнему сообщению

В этой теме нет новых непрочитанных сообщений. Скачать торрент Проверен Гнездо дракона / Dragon Nest: Warriors' Dawn (2014) WEB-DLRip [576p] iPad

в форуме Фильмы для iPod, iPhone, iPad, Размер: 1.83 ГБ, Здоровье: 100%

Anonymous

0
9|1

57
0

13 сен 2015, 01:12

Anonymous Перейти к последнему сообщению

В этой теме нет новых непрочитанных сообщений. Скачать торрент Проверен Азимов Айзек - Движущая сила, Вставьте шплинт А в гнездо Б [Влад Копп, DJ Инкогнито, 1998, 128 kbps]

в форуме Зарубежная фантастика, фэнтези, мистика, ужасы, Размер: 22.81 МБ, Здоровье: 0%

Anonymous

0
0|0

0
0

11 сен 2016, 11:25

Anonymous Перейти к последнему сообщению



Сейчас этот форум просматривают: нет зарегистрированных пользователей и гости: 0


Вы не можете начинать темы
Вы не можете отвечать на сообщения
Вы не можете редактировать свои сообщения
Вы не можете удалять свои сообщения
Вы не можете добавлять вложения

Перейти:  

!ВНИМАНИЕ!
 Ресурс не предоставляет электронные версии произведений, а занимается лишь коллекционированием и каталогизацией ссылок, присылаемых и публикуемых на форуме нашими читателями. Если вы являетесь правообладателем какого-либо представленного материала и не желаете чтобы ссылка на него находилась в нашем каталоге, свяжитесь с нами и мы незамедлительно удалим её. Файлы для обмена на трекере предоставлены пользователями сайта, и администрация не несёт ответственности за их содержание. Просьба не заливать файлы, защищенные авторскими правами, а также файлы нелегального содержания!