На всех торрентах на трекере установлена скидка на скачивание в размере 100 процентов(а).
 Возможность скачивания торрента НЕ зависит от ограничений при низком ратио, низком аплоаде, требуемом ратио или требуемом аплоаде.


Начать новую тему Ответить на тему
Статистика раздачи
Размер: 4.7 ГБ | Добавлен: 23 янв 2014, 17:30 | Скачали: 0
Сидеров: 0  [0 байт/сек]    Личеров: 0  [0 байт/сек]
Пред. тема | След. тема 

Автор
Сообщение

СообщениеДобавлено: 23 янв 2014, 17:30 

Название: Спит ли Долли на спине? / Почти идеален
Оригинальное название: Sоver Dоlly pa rуggen? / Almost Perfect
Год выхода: 2012
Жанр: комедия
Режиссер: Хeлла Йoоф

В ролях: Николай Ли Каас, Лене Мария Кристенсен, Сидсе Бабетт Кнудсен, Миа Лине, Бирте Нойманн, Расмус Бьерг, Оле Дюпон, Энн Софи Эсперсен, Каспер Крамп

О фильме:
34-летняя телезвезда Анне решает не ждать, когда очередной бойфренд распишется в нежелании заводить ребенка, благо современные технологии позволяют забеременеть при помощи донорской спермы. «Ты будешь лучшей в мире мамой… и папой», — поздравляет Анне подружка. И всё было бы чинно и мирно, если бы не треклятое женское любопытство.
Поборов страх и уступив желанию, Анне добывает адрес биологического отца. Им оказывается кудрявый баламут Гордон Деннис, борец с чайками — «летающими крысами», чокнутый изобретатель и вообще эксцентрик, хранящий дома картонную фигуру Долли Партон и запросто разговаривающий с черепашкой по имени Долли.
Впрочем, отцом будущего ребенка Анне может оказаться и сосед Гордона, его прямая, идеализированная противоположность. И оба не против романа с женщиной с телевидения…



Выпущено: Дания
Продолжительность: 01:42:47
Озвучивание: Любительское (одноголосое) [Д.Есарев]


Формат: MKV
Качество: BDRip 720p [BLUEYES]
Видео: 4586 kb/s, 1280x544
Аудио: Russian: AC3, 448 kb/s (6 ch) / Danish: DTS, 1510 kb/s (6 ch)
Субтитры: Russian [sonnyb], English

Скачать: Сэмпл

Релиз группы:




Общее
Almost.Perfect.2012.Blu.Ray.720p.CINEMANIA.mkv
Формат : Matroska
Версия формата : Version 4 / Version 2
Размер файла : 4,70 Гбайт
Продолжительность : 1 ч. 42 м.
Общий поток : 6546 Кбит/сек
Название фильма : Release Group CINEMANIA
Дата кодирования : UTC 2014-01-23 13:07:28
Программа кодирования : mkvmerge v6.7.0 ('Back to the Ground') 64bit built on Jan 8 2014 15:10:52
Библиотека кодирования : libebml v1.3.0 + libmatroska v1.4.1

Видео
Идентификатор : 1
Формат : AVC
Формат/Информация : Advanced Video Codec
Профиль формата : High@L4.1
Параметр CABAC формата : Да
Параметр ReFrames формата : 5 кадров
Идентификатор кодека : V_MPEG4/ISO/AVC
Продолжительность : 1 ч. 42 м.
Битрейт : 4586 Кбит/сек
Ширина : 1280 пикселей
Высота : 544 пикселя
Соотношение сторон : 2,35:1
Режим частоты кадров : Постоянный
Частота кадров : 24,000 кадра/сек
Цветовое пространство : YUV
Субдискретизация насыщенности : 4:2:0
Битовая глубина : 8 бит
Тип развёртки : Прогрессивная
Бит/(Пиксели*Кадры) : 0.274
Размер потока : 3,20 Гбайт (68%)
Заголовок : Release Group CINEMANIA
Библиотека кодирования : x264 core 130 r2273 b3065e6
Настройки программы : cabac=1 / ref=5 / deblock=1:0:0 / analyse=0x3:0x133 / me=umh / subme=7 / psy=1 / psy_rd=1.00:0.00 / mixed_ref=1 / me_range=16 / chroma_me=1 / trellis=1 / 8x8dct=1 / cqm=0 / deadzone=21,11 / fast_pskip=0 / chroma_qp_offset=-2 / threads=12 / lookahead_threads=2 / sliced_threads=0 / nr=0 / decimate=1 / interlaced=0 / bluray_compat=0 / constrained_intra=0 / bframes=3 / b_pyramid=2 / b_adapt=1 / b_bias=0 / direct=1 / weightb=1 / open_gop=0 / weightp=2 / keyint=250 / keyint_min=24 / scenecut=40 / intra_refresh=0 / rc_lookahead=40 / rc=2pass / mbtree=1 / bitrate=4586 / ratetol=1.0 / qcomp=0.60 / qpmin=0 / qpmax=69 / qpstep=4 / cplxblur=20.0 / qblur=0.5 / ip_ratio=1.40 / aq=1:1.00
Язык : Danish
Default : Да
Forced : Нет

Аудио #1
Идентификатор : 2
Формат : AC-3
Формат/Информация : Audio Coding 3
Расширение режима : CM (complete main)
Параметр Endianness формата : Big
Идентификатор кодека : A_AC3
Продолжительность : 1 ч. 42 м.
Вид битрейта : Постоянный
Битрейт : 448 Кбит/сек
Каналы : 6 каналов
Расположение каналов : Front: L C R, Side: L R, LFE
Частота : 48,0 КГц
Битовая глубина : 16 бит
Метод сжатия : С потерями
Размер потока : 329 Мбайт (7%)
Заголовок : Д.Есарев
Язык : Russian
Default : Да
Forced : Да

Аудио #2
Идентификатор : 3
Формат : DTS
Формат/Информация : Digital Theater Systems
Режим : 16
Параметр Endianness формата : Big
Идентификатор кодека : A_DTS
Продолжительность : 1 ч. 42 м.
Вид битрейта : Постоянный
Битрейт : 1509 Кбит/сек
Каналы : 6 каналов
Расположение каналов : Front: L C R, Side: L R, LFE
Частота : 48,0 КГц
Битовая глубина : 24 бит
Метод сжатия : С потерями
Размер потока : 1,08 Гбайт (23%)
Язык : Danish
Default : Нет
Forced : Нет

Текст #1
Идентификатор : 4
Формат : UTF-8
Идентификатор кодека : S_TEXT/UTF8
Идентификатор кодека/Информация : UTF-8 Plain Text
Заголовок : sonnyb
Язык : Russian
Default : Нет
Forced : Нет

Текст #2
Идентификатор : 5
Формат : UTF-8
Идентификатор кодека : S_TEXT/UTF8
Идентификатор кодека/Информация : UTF-8 Plain Text
Язык : English
Default : Нет
Forced : Нет

загрузка...
Правила, инструкции, FAQ!!!
Торрент  Добавлен [23 янв 2014, 17:30] Скачать торрент
Скачать торрент
[ Размер 23.99 КБ / Просмотров 5 ]

Статус  
 
Размер  4.7 ГБ
Приватный: Нет (DHT включён)
.torrent скачан  0
Как залить торрент? | Как скачать Torrent? | Как смотреть и слушать онлайн?  


     Отправить личное сообщение
   
Страница 1 из 1
Показать сообщения за:  Поле сортировки  
Начать новую тему Ответить на тему

   Похожие торренты   Автор   Ответы   Просмотры   Последнее сообщение 
В этой теме нет новых непрочитанных сообщений. Скачать торрент Топ Гир: Идеальное путешествие / Top Gear: The Perfect Road Trip (2013) BDRip 720p

в форуме Top Gear/Топ Гир, Размер: 3.2 ГБ, Здоровье: 100%

Anonymous

0
359|1

178
34

06 дек 2013, 23:47

Anonymous Перейти к последнему сообщению

В этой теме нет новых непрочитанных сообщений. Скачать торрент Проверен Топ Гир: Идеальное Путешествие 2 / Top Gear: The Perfect Road Trip 2 (2014) BDRip 720p | Jetvis Studio & RG.paravozik

в форуме Top Gear/Топ Гир, Размер: 2.7 ГБ, Здоровье: 100%

Anonymous

0
617|142

132
65

27 ноя 2014, 19:16

Anonymous Перейти к последнему сообщению

В этой теме нет новых непрочитанных сообщений. Скачать торрент Проверен (Hard Rock / Melodic Metal) A Perfect Day (APD) - A Perfect Day - 2012, FLAC (image+.cue), lossless

в форуме Classic Rock & Hard Rock, Размер: 422.17 МБ, Здоровье: 0%

Anonymous

0
0|0

5
0

03 сен 2016, 16:37

Anonymous Перейти к последнему сообщению

В этой теме нет новых непрочитанных сообщений. Скачать торрент Проверен (Rock) Полюса - На спине у кита (EP) [2012], MP3, 320 kbps

в форуме Русский Рок, Размер: 27.98 МБ, Здоровье: 0%

Anonymous

0
0|0

0
0

22 авг 2016, 10:44

Anonymous Перейти к последнему сообщению

В этой теме нет новых непрочитанных сообщений. Скачать торрент Проверен Ж.Сименон. Клотц. М. Левель. - Доллары за убийство Долли [1994, PDF, RUS]

в форуме Детективы и Боевики, Размер: 6.53 МБ, Здоровье: 0%

Anonymous

0
0|0

0
0

08 сен 2016, 20:40

Anonymous Перейти к последнему сообщению



Сейчас этот форум просматривают: нет зарегистрированных пользователей и гости: 1


Вы не можете начинать темы
Вы не можете отвечать на сообщения
Вы не можете редактировать свои сообщения
Вы не можете удалять свои сообщения
Вы не можете добавлять вложения

Перейти:  

!ВНИМАНИЕ!
 Ресурс не предоставляет электронные версии произведений, а занимается лишь коллекционированием и каталогизацией ссылок, присылаемых и публикуемых на форуме нашими читателями. Если вы являетесь правообладателем какого-либо представленного материала и не желаете чтобы ссылка на него находилась в нашем каталоге, свяжитесь с нами и мы незамедлительно удалим её. Файлы для обмена на трекере предоставлены пользователями сайта, и администрация не несёт ответственности за их содержание. Просьба не заливать файлы, защищенные авторскими правами, а также файлы нелегального содержания!