На всех торрентах на трекере установлена скидка на скачивание в размере 100 процентов(а).
 Возможность скачивания торрента НЕ зависит от ограничений при низком ратио, низком аплоаде, требуемом ратио или требуемом аплоаде.


Начать новую тему Ответить на тему
Статистика раздачи
Размер: 7.76 ГБ | Добавлен: 22 янв 2014, 21:02 | Скачали: 0
Сидеров: 0  [0 байт/сек]    Личеров: 0  [0 байт/сек]
Пред. тема | След. тема 

Автор
Сообщение

СообщениеДобавлено: 22 янв 2014, 21:02 

Название: Опасный Бангкок
Оригинальное название: Bangkok Dangerous
Год выхода: 2008
Жанр: боевик, триллер, драма, криминал
Режиссер: Оксид Пан, Дэнни Пан

В ролях: Николас Кейдж, Шакрит Ямнарм, Чарли Енг, Пэнворд Хаммани, Дом Хетракул, Джеймс Уит

О фильме:
Четыре главных правила наемного убийцы: 1) не задавать вопросов; 2) нет правых и виноватых; 3) не интересоваться людьми, не имеющих отношения к работе; 4) знать, когда уйти, и уйти богатым.
В этом городе вы можете купить всё, но вы не можете купить всех. И тогда для вас нет страшнее человека, чем наемный убийца, который отвечает на удар.



Выпущено: США
Продолжительность: 01:39:13
Перевод: Дублированный + Оригинал


Кодек: x264
Качество: BDRip 1080p
Видео: 1920x1080, 9920 Kbps, 23.976 fps
Аудио #1: AC-3, 6 ch, 640 kbps (Rus)
Аудио #2: AC-3, 6 ch, 640 kbps (Eng)
Субтитры: русские, английские

Общее
Уникальный идентификатор : 195325781575210688641897498590929276852 (0x92F2608DDCDDAA0EB1E1BE157424CFB4)
Полное имя : Опасный Бангкок.2008.BDRip.1080p.Rus.Eng.mkv
Формат : Matroska
Версия формата : Version 2
Размер файла : 7,76 Гбайт
Продолжительность : 1 ч. 39 м.
Общий поток : 11,2 Мбит/сек
Название фильма : Опасный Бангкок.2008
Дата кодирования : UTC 2014-01-22 14:31:28
Программа кодирования : mkvmerge v5.8.0 ('No Sleep / Pillow') built on Sep 2 2012 15:37:04
Библиотека кодирования : libebml v1.2.3 + libmatroska v1.3.0

Видео
Идентификатор : 1
Формат : AVC
Формат/Информация : Advanced Video Codec
Профиль формата : High@L4.1
Параметр CABAC формата : Да
Параметр ReFrames формата : 4 кадра
Идентификатор кодека : V_MPEG4/ISO/AVC
Продолжительность : 1 ч. 39 м.
Битрейт : 9920 Кбит/сек
Ширина : 1920 пикселей
Высота : 1080 пикселей
Соотношение сторон : 16:9
Режим частоты кадров : Постоянный
Частота кадров : 23,976 кадра/сек
Цветовое пространство : YUV
Субдискретизация насыщенности : 4:2:0
Битовая глубина : 8 бит
Тип развёртки : Прогрессивная
Бит/(Пиксели*Кадры) : 0.200
Размер потока : 6,72 Гбайт (87%)
Заголовок : Rip by Boriy
Библиотека кодирования : x264 core 140 r2377 1ca7bb9
Настройки программы : cabac=1 / ref=4 / deblock=1:-3:-3 / analyse=0x3:0x113 / me=umh / subme=11 / psy=1 / psy_rd=1.00:0.00 / mixed_ref=1 / me_range=32 / chroma_me=1 / trellis=2 / 8x8dct=1 / cqm=0 / deadzone=21,11 / fast_pskip=0 / chroma_qp_offset=-2 / threads=12 / lookahead_threads=1 / sliced_threads=0 / nr=0 / decimate=0 / interlaced=0 / bluray_compat=0 / constrained_intra=0 / bframes=6 / b_pyramid=2 / b_adapt=2 / b_bias=0 / direct=3 / weightb=1 / open_gop=0 / weightp=2 / keyint=240 / keyint_min=23 / scenecut=40 / intra_refresh=0 / rc=2pass / mbtree=0 / bitrate=9920 / ratetol=1.0 / qcomp=0.60 / qpmin=0 / qpmax=69 / qpstep=4 / cplxblur=20.0 / qblur=0.5 / ip_ratio=1.40 / pb_ratio=1.30 / aq=1:0.90
Язык : English
Default : Да
Forced : Нет

Аудио #1
Идентификатор : 2
Формат : AC-3
Формат/Информация : Audio Coding 3
Расширение режима : CM (complete main)
Параметр Endianness формата : Big
Идентификатор кодека : A_AC3
Продолжительность : 1 ч. 39 м.
Вид битрейта : Постоянный
Битрейт : 640 Кбит/сек
Каналы : 6 каналов
Расположение каналов : Front: L C R, Side: L R, LFE
Частота : 48,0 КГц
Битовая глубина : 16 бит
Метод сжатия : С потерями
Размер потока : 454 Мбайт (6%)
Заголовок : Дубляж
Язык : Russian
Default : Да
Forced : Нет

Аудио #2
Идентификатор : 3
Формат : AC-3
Формат/Информация : Audio Coding 3
Расширение режима : CM (complete main)
Параметр Endianness формата : Big
Идентификатор кодека : A_AC3
Продолжительность : 1 ч. 39 м.
Вид битрейта : Постоянный
Битрейт : 640 Кбит/сек
Каналы : 6 каналов
Расположение каналов : Front: L C R, Side: L R, LFE
Частота : 48,0 КГц
Битовая глубина : 16 бит
Метод сжатия : С потерями
Размер потока : 454 Мбайт (6%)
Заголовок : Оригинал
Язык : English
Default : Нет
Forced : Нет

Текст #1
Идентификатор : 4
Формат : UTF-8
Идентификатор кодека : S_TEXT/UTF8
Идентификатор кодека/Информация : UTF-8 Plain Text
Язык : Russian
Default : Нет
Forced : Нет

Текст #2
Идентификатор : 5
Формат : UTF-8
Идентификатор кодека : S_TEXT/UTF8
Идентификатор кодека/Информация : UTF-8 Plain Text
Язык : English
Default : Нет
Forced : Нет

Меню
00:00:00.000 : :Not For Everyone
00:08:08.529 : :4 Rules
00:12:36.839 : :Venturing Out
00:20:47.329 : :Night Work
00:27:52.545 : :Human Eyes
00:32:45.713 : :Duty Calls
00:40:19.083 : :Helping Hand
00:44:32.961 : :Show Me
00:52:11.128 : :Teacher
00:59:19.973 : :Bangkok Jobs
01:08:28.395 : :Out on the Town
01:11:33.455 : :Breaking Arrangements
01:18:50.308 : :Making Changes
01:23:25.458 : :Daylight Mission
01:27:13.019 : :River Chase
01:31:25.313 : :Discovering Truth
01:39:12.071 : :A Good Man
загрузка...
Правила, инструкции, FAQ!!!
Торрент  Добавлен [22 янв 2014, 21:02] Скачать торрент
Скачать торрент
[ Размер 39.26 КБ / Просмотров 5 ]

Статус  
 
Размер  7.76 ГБ
Приватный: Нет (DHT включён)
.torrent скачан  0
Как залить торрент? | Как скачать Torrent? | Как смотреть и слушать онлайн?  


     Отправить личное сообщение
   
Страница 1 из 1
Показать сообщения за:  Поле сортировки  
Начать новую тему Ответить на тему

   Похожие торренты   Автор   Ответы   Просмотры   Последнее сообщение 
В этой теме нет новых непрочитанных сообщений. Скачать торрент Опасный Бангкок / Bangkok Dangerous (2008) BDRip

в форуме Боевики, Размер: 2.18 ГБ, Здоровье: 0%

Anonymous

0
0|0

25
0

22 янв 2014, 20:56

Anonymous Перейти к последнему сообщению

В этой теме нет новых непрочитанных сообщений. Скачать торрент Опасный Бангкок / Bangkok Dangerous (Оксид Пэнг Чун / Oxide Pang Chun, Дэнни Пэнг / Danny Pang) [2008 г., Боевик, триллер, драма, криминал, DVDRip] Dub

в форуме Боевики, Размер: 1.46 ГБ, Здоровье: 0%

Anonymous

0
0|0

31
0

13 фев 2014, 06:34

Anonymous Перейти к последнему сообщению

В этой теме нет новых непрочитанных сообщений. Скачать торрент Проверен Бердетт Джон / John Burdett - Бангкок-8 / Bangkok 8 [2008, fb2, rtf, pdf]

в форуме Детективы и Боевики, Размер: 3.74 МБ, Здоровье: 0%

Anonymous

0
0|0

1
0

08 сен 2016, 21:41

Anonymous Перейти к последнему сообщению

В этой теме нет новых непрочитанных сообщений. Скачать торрент Проверен Самый опасный человек / A Most Wanted Man (2014) BDRip 1080p | Чистый звук

в форуме 720p | 1080p, Размер: 9.58 ГБ, Здоровье: 100%

Anonymous

0
832|54

155
6972

26 окт 2014, 08:30

Anonymous Перейти к последнему сообщению

В этой теме нет новых непрочитанных сообщений. Скачать торрент Проверен (Rock) Таиланд - Бангкок-Рок - 2008, MP3 , 192 kbps

в форуме Русский Рок, Размер: 58.27 МБ, Здоровье: 0%

Anonymous

0
0|0

1
0

21 авг 2016, 08:03

Anonymous Перейти к последнему сообщению



Сейчас этот форум просматривают: нет зарегистрированных пользователей и гости: 2


Вы не можете начинать темы
Вы не можете отвечать на сообщения
Вы не можете редактировать свои сообщения
Вы не можете удалять свои сообщения
Вы не можете добавлять вложения

Перейти:  

!ВНИМАНИЕ!
 Ресурс не предоставляет электронные версии произведений, а занимается лишь коллекционированием и каталогизацией ссылок, присылаемых и публикуемых на форуме нашими читателями. Если вы являетесь правообладателем какого-либо представленного материала и не желаете чтобы ссылка на него находилась в нашем каталоге, свяжитесь с нами и мы незамедлительно удалим её. Файлы для обмена на трекере предоставлены пользователями сайта, и администрация не несёт ответственности за их содержание. Просьба не заливать файлы, защищенные авторскими правами, а также файлы нелегального содержания!