На всех торрентах на трекере установлена скидка на скачивание в размере 100 процентов(а).
 Возможность скачивания торрента НЕ зависит от ограничений при низком ратио, низком аплоаде, требуемом ратио или требуемом аплоаде.


Начать новую тему Ответить на тему
Статистика раздачи
Размер: 1.45 ГБ | Добавлен: 22 янв 2014, 15:28 | Скачали: 0
Сидеров: 0  [0 байт/сек]    Личеров: 0  [0 байт/сек]
Пред. тема | След. тема 

Автор
Сообщение

СообщениеДобавлено: 22 янв 2014, 15:28 

Год выпуска: 1993
Страна: США
Жанр: комедия, драма, семейный
Продолжительность: 02:05:11
Перевод: Профессиональный (многоголосый, закадровый)
Русские субтитры: нет

Режиссер: Крис Коламбус / Chris Columbus

В ролях: Робин Уильямс, Сэлли Филд, Пирс Броснан, Харви Файерстин, Полли Холлидей, Лиза Якуб, Мэттью Лоуренс, Мара Уилсон, Роберт Проски, Энн Хейни

Описание: Неприятности сыплются на Дэниеля Хиларда, как из рога изобилия: он теряет работу, от него уходит жена и после развода ему позволено видеть детей всего раз в неделю!

Но Дэниель находит выход — переодевается в женское платье и становится Миссис Даутфайр — пожилой женщиной. Он нанимается к собственной жене в домработницы, и теперь может видеть своих детей каждый день. Последствия, естественно, будут самыми непредсказуемыми.



Качество: HDRip-AVC [Исходник BDRip 1080p]
Формат: MKV
Видео кодек: H.264
Аудио кодек: AC3
Видео: 864x368 (2:35:1), 23.976 fps, H264, 1 467 Kbps, 0.192 bit/pixel
Аудио: 48 kHz, AC3 Dolby Digital, 2/0 (L,R) ch, ~192 kbps

Раздача от:


D:Мои рипыMrs.Doubtfire.1993.HDRip-AVC.dexter_lex.mkv
General
Unique ID : 237549072803664783834242896167279340247 (0xB2B64989B3733400AD3FD5CB87252AD7)
Complete name : D:Мои рипыMrs.Doubtfire.1993.HDRip-AVC.dexter_lex.mkv
Format : Matroska
Format version : Version 2
File size : 1.45 GiB
Duration : 2h 5mn
Overall bit rate : 1 660 Kbps
Encoded date : UTC 2014-01-17 17:31:20
Writing application : mkvmerge v6.1.0 ('Old Devil') built on Mar 4 2013 09:10:42
Writing library : libebml v1.3.0 + libmatroska v1.4.0
Video #1
ID : 1
Format : AVC
Format/Info : Advanced Video Codec
Format profile : High@L4.1
Format settings, CABAC : Yes
Format settings, ReFrames : 11 frames
Codec ID : V_MPEG4/ISO/AVC
Duration : 2h 5mn
Bit rate : 1 467 Kbps
Width : 864 pixels
Height : 368 pixels
Display aspect ratio : 2.35:1
Frame rate : 23.976 fps
Color space : YUV
Chroma subsampling : 4:2:0
Bit depth : 8 bits
Scan type : Progressive
Bits/(Pixel*Frame) : 0.192
Stream size : 1.25 GiB (86%)
Writing library : x264 core 130 r2273 b3065e6
Encoding settings : cabac=1 / ref=11 / deblock=1:-2:-2 / analyse=0x3:0x113 / me=umh / subme=10 / psy=1 / psy_rd=1.00:0.15 / mixed_ref=1 / me_range=32 / chroma_me=1 / trellis=2 / 8x8dct=1 / cqm=0 / deadzone=21,11 / fast_pskip=0 / chroma_qp_offset=-3 / threads=6 / lookahead_threads=1 / sliced_threads=0 / nr=0 / decimate=1 / interlaced=0 / bluray_compat=0 / constrained_intra=0 / bframes=9 / b_pyramid=2 / b_adapt=2 / b_bias=0 / direct=3 / weightb=1 / open_gop=0 / weightp=2 / keyint=240 / keyint_min=23 / scenecut=40 / intra_refresh=0 / rc_lookahead=60 / rc=2pass / mbtree=1 / bitrate=1467 / ratetol=1.0 / qcomp=0.60 / qpmin=0 / qpmax=69 / qpstep=4 / cplxblur=20.0 / qblur=0.5 / ip_ratio=1.40 / aq=1:1.00
Default : Yes
Forced : No
Audio #2
ID : 2
Format : AC-3
Format/Info : Audio Coding 3
Mode extension : CM (complete main)
Codec ID : A_AC3
Duration : 2h 5mn
Bit rate mode : Constant
Bit rate : 192 Kbps
Channel(s) : 2 channels
Channel positions : Front: L R
Sampling rate : 48.0 KHz
Bit depth : 16 bits
Compression mode : Lossy
Stream size : 172 MiB (12%)
Default : Yes
Forced : No
загрузка...
Правила, инструкции, FAQ!!!
Торрент  Добавлен [22 янв 2014, 15:28] Скачать торрент
Скачать торрент
[ Размер 15.08 КБ / Просмотров 4 ]

Статус  
 
Размер  1.45 ГБ
Приватный: Нет (DHT включён)
.torrent скачан  0
Как залить торрент? | Как скачать Torrent? | Как смотреть и слушать онлайн?  


     Отправить личное сообщение
   
Страница 1 из 1
Показать сообщения за:  Поле сортировки  
Начать новую тему Ответить на тему

   Похожие торренты   Автор   Ответы   Просмотры   Последнее сообщение 
В этой теме нет новых непрочитанных сообщений. Скачать торрент Проверен Миссис Уинтерборн / Mrs. Winterbourne (1996) DVDRip | P

в форуме Драмы, Мелодрамы, Размер: 1.46 ГБ, Здоровье: 20%

Anonymous

0
1|5

34
0

27 дек 2014, 00:25

Anonymous Перейти к последнему сообщению

В этой теме нет новых непрочитанных сообщений. Скачать торрент Мистер и миссис Смит / Mr. & Mrs. Smith (2005) BDRip 720p | Director's Cut | P, P2, A

в форуме 720p | 1080p, Размер: 4.31 ГБ, Здоровье: 0%

Anonymous

0
0|0

24
0

15 фев 2014, 17:33

Anonymous Перейти к последнему сообщению

В этой теме нет новых непрочитанных сообщений. Скачать торрент Проверен Райс Крэйг - Розы миссис Черингтон [Лебедева Валерия, 2015 г., 96 kbps, MP3]

в форуме Детектив и Боевики, Размер: 466.67 МБ, Здоровье: 100%

Anonymous

0
1|0

0
0

20 ноя 2016, 17:54

Anonymous Перейти к последнему сообщению

В этой теме нет новых непрочитанных сообщений. Скачать торрент Проверен Кинг Стивен - Кратчайший путь для миссис Тодд [Раскатова Светлана, 2013, 96 kbps, MP3]

в форуме Зарубежная фантастика, фэнтези, мистика, ужасы, Размер: 62.09 МБ, Здоровье: 0%

Anonymous

0
0|0

0
0

11 сен 2016, 10:59

Anonymous Перейти к последнему сообщению

В этой теме нет новых непрочитанных сообщений. Скачать торрент Проверен Mona Lisa - Jeffrey Ford / Джеффри Форд - The Portrait of Mrs. Charbuque / Портрет миссис Шарбук [2007, FB2, RUS]

в форуме Детективы и Боевики, Размер: 963.85 КБ, Здоровье: 0%

Anonymous

0
0|0

0
0

08 сен 2016, 20:52

Anonymous Перейти к последнему сообщению



Сейчас этот форум просматривают: нет зарегистрированных пользователей и гости: 2


Вы не можете начинать темы
Вы не можете отвечать на сообщения
Вы не можете редактировать свои сообщения
Вы не можете удалять свои сообщения
Вы не можете добавлять вложения

Перейти:  

!ВНИМАНИЕ!
 Ресурс не предоставляет электронные версии произведений, а занимается лишь коллекционированием и каталогизацией ссылок, присылаемых и публикуемых на форуме нашими читателями. Если вы являетесь правообладателем какого-либо представленного материала и не желаете чтобы ссылка на него находилась в нашем каталоге, свяжитесь с нами и мы незамедлительно удалим её. Файлы для обмена на трекере предоставлены пользователями сайта, и администрация не несёт ответственности за их содержание. Просьба не заливать файлы, защищенные авторскими правами, а также файлы нелегального содержания!