На всех торрентах на трекере установлена скидка на скачивание в размере 100 процентов(а).
 Возможность скачивания торрента НЕ зависит от ограничений при низком ратио, низком аплоаде, требуемом ратио или требуемом аплоаде.


Начать новую тему Ответить на тему
Статистика раздачи
Размер: 7.95 ГБ | Добавлен: 21 янв 2014, 13:09 | Скачали: 0
Сидеров: 0  [0 байт/сек]    Личеров: 0  [0 байт/сек]
Пред. тема | След. тема 

Автор
Сообщение

СообщениеДобавлено: 21 янв 2014, 13:09 

Название: Рекрут
Оригинальное название: The Recruit
Год выхода: 2003
Жанр: боевик, триллер, драма, криминал
Режиссер: Роджер Дональдсон

В ролях:
Аль Пачино (Walter Burke), Колин Фаррелл (James Douglas Clayton), Бриджет Мойнэхэн (Layla Moore), Гэбриел Махт (Zack), Кеннет Митчел (Alan), Майк Рилба (Ronnie Gibson), Рон Лиа (Bill Rudolph, Dell Rep), Карл Прюнер (Dennis Slayne), Джини Колледжа (Co-Ed #1), Дженни Ливайн (Blonde with Cell Phone), Анджело Царучас (Cab Driver), Veronica Hurnick (Polygraph Interrogator)

О фильме:
Джеймс Клэйтон вовсе не мечтал о карьере шпиона. Но соблазн узнать правду о таинственном исчезновении в 1990 году своего отца — секретного агента, заставляет его завербоваться в ЦРУ. Новоиспеченный рекрут неплохо проходит один тест за другим, однако задания становятся все изощреннее.
Обыденные события оказываются скрытой проверкой, а наставник героя, матерый разведчик Уолтер Берк все настойчивее намекает: происходящее на самом деле может быть не тем, чем кажется. Обстановка накаляется с каждым днем, и однажды Клэйтон узнает причину этого: в Лэнгли завелся «крот», и именно ему предстоит вычислить предателя.
Что это, очередной тест? Или шутки кончились, и на кону — национальная безопасность?



Страна: США
Студия: Epsilon Motion Pictures, Spyglass Entertainment, Touchstone Pictures
Продолжительность: 01:55:01
Перевод: Профессиональный (дублированный)


Кодек: H.264
Качество: BDRip 1080p
Видео: 1920x816 (2.35:1), 23.976 fps, AVC, 8 358 Kbps
Звук:
AC3, 192 Kbps, 48.0 KHz, 2 ch ( (дубляж ~` Diablo)
AC3, 448 Kbps, 48.0 KHz, 6 ch (многоголосый 1)
AC3, 448 Kbps, 48.0 KHz, 6 ch (многоголосый 2)
AC3, 448 Kbps, 48.0 KHz, 6 ch (оригинал )
Субтитры: Russian ,english (srt)


Общее
Уникальный идентификатор : 183430014454993516472618274205604565036 (0x89FF55F3F67441FFAC8E9EFB0AB8D02C)
Полное имя : E:торрентThe.Recruit.2003.BDRip-F.HD .mkv
Формат : Matroska
Версия формата : Version 2
Размер файла : 7,95 Гбайт
Продолжительность : 1 ч. 55 м.
Общий поток : 9894 Кбит/сек
Дата кодирования : UTC 2012-08-21 08:11:35
Программа кодирования : mkvmerge v5.4.0 ('Piper') built on Mar 10 2012 13:34:39
Библиотека кодирования : libebml v1.2.3 + libmatroska v1.3.0

Видео
Идентификатор : 1
Формат : AVC
Формат/Информация : Advanced Video Codec
Профиль формата : High@L4.1
Параметр CABAC формата : Да
Параметр ReFrames формата : 5 кадров
Идентификатор кодека : V_MPEG4/ISO/AVC
Битрейт : 8358 Кбит/сек
Ширина : 1920 пикселей
Высота : 816 пикселей
Соотношение сторон : 2,35:1
Режим частоты кадров : Переменный
Частота кадров в оригинале : 23,976 кадра/сек
Цветовое пространство : YUV
Субдискретизация насыщенности : 4:2:0
Битовая глубина : 8 бит
Тип развёртки : Прогрессивная
Бит/(Пиксели*Кадры) : 0.223
Библиотека кодирования : x264 core 125 r2208 d9d2288
Настройки программы : cabac=1 / ref=5 / deblock=1:-2:-2 / analyse=0x3:0x113 / me=umh / subme=10 / psy=1 / psy_rd=1.00:0.05 / mixed_ref=1 / me_range=32 / chroma_me=1 / trellis=2 / 8x8dct=1 / cqm=0 / deadzone=21,11 / fast_pskip=0 / chroma_qp_offset=1 / threads=6 / lookahead_threads=1 / sliced_threads=0 / nr=0 / decimate=1 / interlaced=0 / bluray_compat=0 / constrained_intra=0 / bframes=8 / b_pyramid=2 / b_adapt=2 / b_bias=0 / direct=3 / weightb=1 / open_gop=0 / weightp=2 / keyint=240 / keyint_min=23 / scenecut=40 / intra_refresh=0 / rc=2pass / mbtree=0 / bitrate=8358 / ratetol=1.0 / qcomp=0.80 / qpmin=0 / qpmax=69 / qpstep=4 / cplxblur=20.0 / qblur=0.5 / ip_ratio=1.40 / pb_ratio=1.30 / aq=2:0.90
Язык : English
Default : Да
Forced : Нет

Аудио #1
Идентификатор : 2
Формат : AC-3
Формат/Информация : Audio Coding 3
Расширение режима : CM (complete main)
Параметр Endianness формата : Big
Идентификатор кодека : A_AC3
Продолжительность : 1 ч. 55 м.
Вид битрейта : Постоянный
Битрейт : 192 Кбит/сек
Каналы : 2 канала
Расположение каналов : Front: L R
Частота : 48,0 КГц
Битовая глубина : 16 бит
Метод сжатия : С потерями
Размер потока : 158 Мбайт (2%)
Заголовок : DUB
Язык : Russian
Default : Да
Forced : Нет

Аудио #2
Идентификатор : 3
Формат : AC-3
Формат/Информация : Audio Coding 3
Расширение режима : CM (complete main)
Параметр Endianness формата : Big
Идентификатор кодека : A_AC3
Продолжительность : 1 ч. 55 м.
Вид битрейта : Постоянный
Битрейт : 448 Кбит/сек
Каналы : 6 каналов
Расположение каналов : Front: L C R, Side: L R, LFE
Частота : 48,0 КГц
Битовая глубина : 16 бит
Метод сжатия : С потерями
Размер потока : 369 Мбайт (5%)
Заголовок : MVO, v2
Язык : Russian
Default : Нет
Forced : Нет

Аудио #3
Идентификатор : 4
Формат : AC-3
Формат/Информация : Audio Coding 3
Расширение режима : CM (complete main)
Параметр Endianness формата : Big
Идентификатор кодека : A_AC3
Продолжительность : 1 ч. 55 м.
Вид битрейта : Постоянный
Битрейт : 448 Кбит/сек
Каналы : 6 каналов
Расположение каналов : Front: L C R, Side: L R, LFE
Частота : 48,0 КГц
Битовая глубина : 16 бит
Метод сжатия : С потерями
Размер потока : 369 Мбайт (5%)
Заголовок : MVO. v2
Язык : Russian
Default : Нет
Forced : Нет

Аудио #4
Идентификатор : 5
Формат : AC-3
Формат/Информация : Audio Coding 3
Расширение режима : CM (complete main)
Параметр Endianness формата : Big
Идентификатор кодека : A_AC3
Продолжительность : 1 ч. 55 м.
Вид битрейта : Постоянный
Битрейт : 448 Кбит/сек
Каналы : 6 каналов
Расположение каналов : Front: L C R, Side: L R, LFE
Частота : 48,0 КГц
Битовая глубина : 16 бит
Метод сжатия : С потерями
Размер потока : 369 Мбайт (5%)
Язык : English
Default : Нет
Forced : Нет

Текст #1
Идентификатор : 6
Формат : UTF-8
Идентификатор кодека : S_TEXT/UTF8
Идентификатор кодека/Информация : UTF-8 Plain Text
Язык : Russian
Default : Нет
Forced : Нет

Текст #2
Идентификатор : 7
Формат : UTF-8
Идентификатор кодека : S_TEXT/UTF8
Идентификатор кодека/Информация : UTF-8 Plain Text
Язык : English
Default : Нет
Forced : Нет



Релиз от:
загрузка...
Правила, инструкции, FAQ!!!
Торрент  Добавлен [21 янв 2014, 13:09] Скачать торрент
Скачать торрент
[ Размер 40.24 КБ / Просмотров 10 ]

Статус  
 
Размер  7.95 ГБ
Приватный: Нет (DHT включён)
.torrent скачан  0
Как залить торрент? | Как скачать Torrent? | Как смотреть и слушать онлайн?  


     Отправить личное сообщение
   
Страница 1 из 1
Показать сообщения за:  Поле сортировки  
Начать новую тему Ответить на тему

   Похожие торренты   Автор   Ответы   Просмотры   Последнее сообщение 
В этой теме нет новых непрочитанных сообщений. Скачать торрент Рекрут / The Recruit (2003) BDRip-AVC | D, P, A | GER Transfer

в форуме 720p | 1080p, Размер: 3.02 ГБ, Здоровье: 0%

Anonymous

0
0|0

47
0

30 янв 2014, 15:16

Anonymous Перейти к последнему сообщению

В этой теме нет новых непрочитанных сообщений. Скачать торрент Джек Райан: Теория хаоса / Jack Ryan: Shadow Recruit (Кеннет Брана / Kenneth Branagh) [2014, США, Россия, боевик, триллер, детектив, BDRip] Dub (iTunes)

в форуме Боевики, Размер: 744.8 МБ, Здоровье: 100%

Anonymous

0
56|19

63
0

16 май 2014, 00:25

Anonymous Перейти к последнему сообщению

В этой теме нет новых непрочитанных сообщений. Скачать торрент Проверен Люди Икс 2 / X2 (2003) BDRip 1080p

в форуме 720p | 1080p, Размер: 6.94 ГБ, Здоровье: 100%

Anonymous

0
9|7

39
34

29 окт 2014, 23:48

Anonymous Перейти к последнему сообщению

В этой теме нет новых непрочитанных сообщений. Скачать торрент Проверен Азуми / Azumi (2003) BDRip 1080p | P, L1

в форуме 720p | 1080p, Размер: 11.15 ГБ, Здоровье: ???%

Anonymous

0
0|2

50
106

09 авг 2014, 14:26

Anonymous Перейти к последнему сообщению

В этой теме нет новых непрочитанных сообщений. Скачать торрент Проверен 21 грамм / 21 Grams (2003) BDRip 1080p

в форуме 720p | 1080p, Размер: 11.54 ГБ, Здоровье: 100%

Anonymous

0
57|28

43
417

29 ноя 2014, 00:59

Anonymous Перейти к последнему сообщению



Сейчас этот форум просматривают: нет зарегистрированных пользователей и гости: 1


Вы не можете начинать темы
Вы не можете отвечать на сообщения
Вы не можете редактировать свои сообщения
Вы не можете удалять свои сообщения
Вы не можете добавлять вложения

Перейти:  

!ВНИМАНИЕ!
 Ресурс не предоставляет электронные версии произведений, а занимается лишь коллекционированием и каталогизацией ссылок, присылаемых и публикуемых на форуме нашими читателями. Если вы являетесь правообладателем какого-либо представленного материала и не желаете чтобы ссылка на него находилась в нашем каталоге, свяжитесь с нами и мы незамедлительно удалим её. Файлы для обмена на трекере предоставлены пользователями сайта, и администрация не несёт ответственности за их содержание. Просьба не заливать файлы, защищенные авторскими правами, а также файлы нелегального содержания!