На всех торрентах на трекере установлена скидка на скачивание в размере 100 процентов(а).
 Возможность скачивания торрента НЕ зависит от ограничений при низком ратио, низком аплоаде, требуемом ратио или требуемом аплоаде.


Начать новую тему Ответить на тему
Статистика раздачи
Размер: 3.65 ГБ | Добавлен: 21 янв 2014, 10:16 | Скачали: 0
Сидеров: 0  [0 байт/сек]    Личеров: 0  [0 байт/сек]
Пред. тема | След. тема 

Автор
Сообщение

СообщениеДобавлено: 21 янв 2014, 10:16 

Название: Дорожное приключение
Оригинальное название: Road Trip
Год выпуска: 2000
Жанр: Комедия
Режиссер: Тодд Филлипс

В ролях: Брекин Мейер, Шонн Уильям Скотт, Эми Смарт, Паоло Костанзо, ДиДжей Куаллс, Том Грин, Рэйчел Блэнчард, Энтони Рэпп, Фред Уорд, Энди Дик

Описание: Изменять своей девушке, прямо скажем, нехорошо! И уж тем более нехорошо записывать весь процесс измены на камеру. И просто непростительно, пусть даже по ошибке, отправлять пикантную видеозапись своей девушке в подарок.Теперь спасти положение может только марш-бросок через всю Америку, дабы перехватить злополучную пленку раньше, чем она попадет в руки вашей зазнобы. Но не ждите, что все будет идти «как по маслу». Вас ждет дорожное приключение, по сравнению с которым поездка на американских горках - всего лишь игра в песочнице!



Страна: США
Студия: DreamWorks SKG, The Montecito Picture Company, Santa Barbara Studios
Продолжительность: 01:34:13
Перевод: Дублированный, профессиональный многоголосый, авторский одноголосый


Качество: BDRip (AVC)
Видео: MPEG-4 AVC, 3500 Кбит/с, 1024x576, 23.976 кадр/с
Аудио #1: Русский (AC3, 6 ch, 448 Кбит/с) / Профессиональный многоголосый (R5)
Аудио #2: Русский (AC3, 2 ch, 192 Кбит/с) / Профессиональный многоголосый (Первый канал)
Аудио #3: Русский (AC3, ch, 192 Кбит/с) / Дублированный
Аудио #4: Русский (AC3, 2 ch, 192 Кбит/с) / Авторский одноголосый (В. Сонькин)
Аудио #5: Русский (AC3, 6 ch, 448 Кбит/с) / Авторский одноголосый (Ю. Живов)
Аудио #6: Украинский (AC3, 2 ch, 128 Кбит/с) / Профессиональный многоголосый (Новый канал)
Аудио #7: Английский (AC3, 6 ch, 448 Кбит/с)
Субтитры: Русские, английские

Семпл



Общее
Уникальный идентификатор : 184772548057978745836939196140844738631 (0x8B01E5F8560E9A648FFDA1E739A7E847)
Полное имя : D:Mои раздачиDorozhnoe.priklyuchenie.2000.BDRip.(AVC)-MediaClub.mkv
Формат : Matroska
Версия формата : Version 4 / Version 2
Размер файла : 3,65 Гбайт
Продолжительность : 1 ч. 34 м.
Общий поток : 5551 Кбит/сек
Название фильма : -=MediaClub-kaspr=-
Дата кодирования : UTC 2013-12-06 12:28:07
Программа кодирования : mkvmerge v6.1.0 ('Old Devil') built on Mar 4 2013 09:10:42
Библиотека кодирования : libebml v1.3.0 + libmatroska v1.4.0
Attachment : Yes

Видео
Идентификатор : 1
Формат : AVC
Формат/Информация : Advanced Video Codec
Профиль формата : High@L4.1
Параметр CABAC формата : Да
Параметр ReFrames формата : 9 кадров
Идентификатор кодека : V_MPEG4/ISO/AVC
Продолжительность : 1 ч. 34 м.
Битрейт : 3500 Кбит/сек
Ширина : 1024 пикселя
Высота : 576 пикселей
Соотношение сторон : 16:9
Режим частоты кадров : Постоянный
Частота кадров : 23,976 кадра/сек
Цветовое пространство : YUV
Субдискретизация насыщенности : 4:2:0
Битовая глубина : 8 бит
Тип развёртки : Прогрессивная
Бит/(Пиксели*Кадры) : 0.247
Размер потока : 2,23 Гбайт (61%)
Заголовок : -=MediaClub-kaspr=-
Библиотека кодирования : x264 core 130 r2273 b3065e6
Настройки программы : cabac=1 / ref=9 / deblock=1:-3:-3 / analyse=0x3:0x133 / me=umh / subme=11 / psy=1 / psy_rd=1.00:0.20 / mixed_ref=1 / me_range=48 / chroma_me=1 / trellis=2 / 8x8dct=1 / cqm=0 / deadzone=21,11 / fast_pskip=0 / chroma_qp_offset=-3 / threads=12 / lookahead_threads=3 / sliced_threads=0 / nr=0 / decimate=0 / interlaced=0 / bluray_compat=0 / constrained_intra=0 / bframes=10 / b_pyramid=2 / b_adapt=2 / b_bias=0 / direct=3 / weightb=1 / open_gop=0 / weightp=2 / keyint=240 / keyint_min=23 / scenecut=40 / intra_refresh=0 / rc=2pass / mbtree=0 / bitrate=3500 / ratetol=1.0 / qcomp=0.60 / qpmin=0 / qpmax=69 / qpstep=4 / cplxblur=20.0 / qblur=0.5 / ip_ratio=1.40 / pb_ratio=1.30 / aq=1:1.00
Default : Да
Forced : Да

Аудио #1
Идентификатор : 2
Формат : AC-3
Формат/Информация : Audio Coding 3
Расширение режима : CM (complete main)
Параметр Endianness формата : Big
Идентификатор кодека : A_AC3
Продолжительность : 1 ч. 34 м.
Вид битрейта : Постоянный
Битрейт : 448 Кбит/сек
Каналы : 6 каналов
Расположение каналов : Front: L C R, Side: L R, LFE
Частота : 48,0 КГц
Битовая глубина : 16 бит
Метод сжатия : С потерями
Размер потока : 302 Мбайт (8%)
Заголовок : AC3, 6ch, 448 Kbps (MVO) |R5|
Язык : Russian
Default : Да
Forced : Нет

Аудио #2
Идентификатор : 3
Формат : AC-3
Формат/Информация : Audio Coding 3
Расширение режима : CM (complete main)
Параметр Endianness формата : Big
Идентификатор кодека : A_AC3
Продолжительность : 1 ч. 34 м.
Вид битрейта : Постоянный
Битрейт : 192 Кбит/сек
Каналы : 2 канала
Расположение каналов : Front: L R
Частота : 48,0 КГц
Битовая глубина : 16 бит
Метод сжатия : С потерями
Размер потока : 129 Мбайт (3%)
Заголовок : AC3, 2ch, 192 Kbps (MVO) |Первый канал|
Язык : Russian
Default : Нет
Forced : Нет

Аудио #3
Идентификатор : 4
Формат : AC-3
Формат/Информация : Audio Coding 3
Расширение режима : CM (complete main)
Параметр Endianness формата : Big
Идентификатор кодека : A_AC3
Продолжительность : 1 ч. 34 м.
Вид битрейта : Постоянный
Битрейт : 192 Кбит/сек
Каналы : 2 канала
Расположение каналов : Front: L R
Частота : 48,0 КГц
Битовая глубина : 16 бит
Метод сжатия : С потерями
Размер потока : 129 Мбайт (3%)
Заголовок : AC3, 2ch, 192 Kbps (Дубляж) |n/a|
Язык : Russian
Default : Нет
Forced : Нет

Аудио #4
Идентификатор : 5
Формат : AC-3
Формат/Информация : Audio Coding 3
Расширение режима : CM (complete main)
Параметр Endianness формата : Big
Идентификатор кодека : A_AC3
Продолжительность : 1 ч. 34 м.
Вид битрейта : Постоянный
Битрейт : 192 Кбит/сек
Каналы : 2 канала
Расположение каналов : Front: L R
Частота : 48,0 КГц
Битовая глубина : 16 бит
Метод сжатия : С потерями
Размер потока : 129 Мбайт (3%)
Заголовок : AC3, 2ch, 192 Kbps (AVO) |В.Сонькин|
Язык : Russian
Default : Нет
Forced : Нет

Аудио #5
Идентификатор : 6
Формат : AC-3
Формат/Информация : Audio Coding 3
Расширение режима : CM (complete main)
Параметр Endianness формата : Big
Идентификатор кодека : A_AC3
Продолжительность : 1 ч. 34 м.
Вид битрейта : Постоянный
Битрейт : 448 Кбит/сек
Каналы : 6 каналов
Расположение каналов : Front: L C R, Side: L R, LFE
Частота : 48,0 КГц
Битовая глубина : 16 бит
Метод сжатия : С потерями
Размер потока : 302 Мбайт (8%)
Заголовок : AC3, 6ch, 448 Kbps (AVO) |Ю.Живов|
Язык : Russian
Default : Нет
Forced : Нет

Аудио #6
Идентификатор : 7
Формат : AC-3
Формат/Информация : Audio Coding 3
Расширение режима : CM (complete main)
Параметр Endianness формата : Big
Идентификатор кодека : A_AC3
Продолжительность : 1 ч. 34 м.
Вид битрейта : Постоянный
Битрейт : 128 Кбит/сек
Каналы : 2 канала
Расположение каналов : Front: L R
Частота : 48,0 КГц
Битовая глубина : 16 бит
Метод сжатия : С потерями
Задержка видео : 4 мс.
Размер потока : 86,3 Мбайт (2%)
Заголовок : AC3, 2ch, 128 Kbps (MVO) |Новий канал|
Язык : Ukrainian
Default : Нет
Forced : Нет

Аудио #7
Идентификатор : 8
Формат : AC-3
Формат/Информация : Audio Coding 3
Расширение режима : CM (complete main)
Параметр Endianness формата : Big
Идентификатор кодека : A_AC3
Продолжительность : 1 ч. 34 м.
Вид битрейта : Постоянный
Битрейт : 448 Кбит/сек
Каналы : 6 каналов
Расположение каналов : Front: L C R, Side: L R, LFE
Частота : 48,0 КГц
Битовая глубина : 16 бит
Метод сжатия : С потерями
Размер потока : 302 Мбайт (8%)
Язык : English
Default : Нет
Forced : Нет

Текст #1
Идентификатор : 9
Формат : UTF-8
Идентификатор кодека : S_TEXT/UTF8
Идентификатор кодека/Информация : UTF-8 Plain Text
Заголовок : [полный] R5
Язык : Russian
Default : Нет
Forced : Нет

Текст #2
Идентификатор : 10
Формат : UTF-8
Идентификатор кодека : S_TEXT/UTF8
Идентификатор кодека/Информация : UTF-8 Plain Text
Заголовок : [полный] Dais
Язык : Russian
Default : Нет
Forced : Нет

Текст #3
Идентификатор : 11
Формат : UTF-8
Идентификатор кодека : S_TEXT/UTF8
Идентификатор кодека/Информация : UTF-8 Plain Text
Заголовок : [полный]
Язык : English
Default : Нет
Forced : Нет

Меню
00:00:00.000 : en:1. Tour of Ithaca College
00:07:05.800 : en:2. Beth Likes Josh (Not Jacob)
00:09:28.943 : en:3. We Meet E.L.
00:11:27.604 : en:4. The Auction
00:15:58.040 : en:5. Josh Gets "Special" Attention
00:18:58.137 : en:6. "It's Boner Time!"
00:23:36.540 : en:7. We Meet Kyle
00:26:40.474 : en:8. The Rules of Cheating
00:30:26.700 : en:9. The Obligatory Shower Scene
00:33:11.448 : en:10. The Bridge
00:38:01.070 : en:11. Beford Motel
00:40:54.952 : en:12. Stealing from the Blind
00:46:17.942 : en:13. Feeding Time
00:49:42.771 : en:14. The Wrong Tiffany
00:53:18.237 : en:15. Kyle Is an Evil White Bigot
00:58:22.499 : en:16. Kyle and Rhonda
01:02:17.692 : en:17. Sperm Donations
01:06:10.675 : en:18. Barry vs. the Snake
01:08:17.760 : en:19. Grandpa Manilow
01:11:37.710 : en:20. Getting High with Grandpa
01:15:34.947 : en:21. Arrive at the U. of Austin
01:20:32.453 : en:22. Tiffany Watches the Tape
01:26:15.462 : en:23. Barry Wraps Up the Tour
01:30:08.194 : en:24. End Credits

Релиз: |
загрузка...
Правила, инструкции, FAQ!!!
Торрент  Добавлен [21 янв 2014, 10:16] Скачать торрент
Скачать торрент
[ Размер 18.86 КБ / Просмотров 5 ]

Статус  
 
Размер  3.65 ГБ
Приватный: Нет (DHT включён)
.torrent скачан  0
Как залить торрент? | Как скачать Torrent? | Как смотреть и слушать онлайн?  


     Отправить личное сообщение
   
Страница 1 из 1
Показать сообщения за:  Поле сортировки  
Начать новую тему Ответить на тему

   Похожие торренты   Автор   Ответы   Просмотры   Последнее сообщение 
В этой теме нет новых непрочитанных сообщений. Скачать торрент Дорожное приключение / Road Trip [Unrated] (2000) BDRip

в форуме Комедии, Размер: 1.45 ГБ, Здоровье: 0%

Anonymous

0
0|0

54
0

21 янв 2014, 10:09

Anonymous Перейти к последнему сообщению

В этой теме нет новых непрочитанных сообщений. Скачать торрент Поросенок Фунтик: Дорожное Приключение [P] [RUS / RUS] (2009) [3+]

в форуме Детские, Размер: 81.2 МБ, Здоровье: 100%

Anonymous

0
82|0

43
0

22 янв 2014, 17:34

Anonymous Перейти к последнему сообщению

В этой теме нет новых непрочитанных сообщений. Скачать торрент Проверен Топ Гир: Идеальное Путешествие 2 / Top Gear: The Perfect Road Trip 2 (2014) BDRip 720p | Jetvis Studio & RG.paravozik

в форуме Top Gear/Топ Гир, Размер: 2.7 ГБ, Здоровье: 100%

Anonymous

0
617|142

134
65

27 ноя 2014, 19:16

Anonymous Перейти к последнему сообщению

В этой теме нет новых непрочитанных сообщений. Скачать торрент Проверен (Nu Metal / Trip-Hop) Warped Road - Warped Road - 2014, MP3, 320 kbps

в форуме Русский Рок, Размер: 139.71 МБ, Здоровье: 0%

Anonymous

0
0|0

1
0

21 авг 2016, 07:31

Anonymous Перейти к последнему сообщению

В этой теме нет новых непрочитанных сообщений. Скачать торрент Проверен Линда - 6 оригинальных альбомов (1994-2000) [APE|Lossless] <Alternative / Trip-hop>

в форуме Русский рок, Размер: 2.16 ГБ, Здоровье: ???%

Anonymous

0
0|11

63
0

29 июн 2014, 00:22

Anonymous Перейти к последнему сообщению



Сейчас этот форум просматривают: нет зарегистрированных пользователей и гости: 3


Вы не можете начинать темы
Вы не можете отвечать на сообщения
Вы не можете редактировать свои сообщения
Вы не можете удалять свои сообщения
Вы не можете добавлять вложения

Перейти:  

!ВНИМАНИЕ!
 Ресурс не предоставляет электронные версии произведений, а занимается лишь коллекционированием и каталогизацией ссылок, присылаемых и публикуемых на форуме нашими читателями. Если вы являетесь правообладателем какого-либо представленного материала и не желаете чтобы ссылка на него находилась в нашем каталоге, свяжитесь с нами и мы незамедлительно удалим её. Файлы для обмена на трекере предоставлены пользователями сайта, и администрация не несёт ответственности за их содержание. Просьба не заливать файлы, защищенные авторскими правами, а также файлы нелегального содержания!