На всех торрентах на трекере установлена скидка на скачивание в размере 100 процентов(а).
 Возможность скачивания торрента НЕ зависит от ограничений при низком ратио, низком аплоаде, требуемом ратио или требуемом аплоаде.


Начать новую тему Ответить на тему
Статистика раздачи
Размер: 11.52 ГБ | Добавлен: 20 янв 2014, 17:36 | Скачали: 0
Сидеров: 0  [0 байт/сек]    Личеров: 0  [0 байт/сек]
Пред. тема | След. тема 

Автор
Сообщение

СообщениеДобавлено: 20 янв 2014, 17:36 

Название: Анжелика, маркиза ангелов
Оригинальное название: Angelique, marquise des anges
Год выпуска: 1964
Жанр: Мелодрама, приключения
Выпущено: Франция, Германия (ФРГ), Италия, Prodis, Liber Film
Режиссер: Бернар Бордери

В ролях: Мишель Мерсье, Робер Оссейн, Жан Рошфор, Клод Жиро, Джулиано Джемма, Шарль Ренье, Жак Тожа, Мадлен ЛеБо, Жан Топар, Бернар Воринже, Филипп Лемэр, Жан Озенн, Франсуа Мэтр

О фильме: Необыкновенно красивая бедная аристократка вынуждена выйти замуж за Жоффрея де Пейрака. Несмотря на его внешность, она со временем полюбила его. Влюблённые живут счастливо в своём замке, пока однажды к ним не приезжает король. Восхищённый красотой Анжелики Людовик XIV хочет сделать её своей наложницей… Экранизация многотомного романа Анн и Сержа Голон "Анжелика".

Качество: BDRip 1080p
Продолжительность: 01:55:52

Видео: MPEG-4 AVC, 12.4 Mбит/с, 1920x816
Аудио 1: русский, 48 kHz, AC3, 2 ch, 384 kbps avg, [Дублированный, с добавлением многоголоски (HTB)]
Аудио 2: русский, 48 kHz, AC3, 2 ch, 384 kbps avg, [Профессиональный многоголосый, НТВ]
Аудио 3: украинский, 48 kHz, AC3, 2 ch, 384 kbps avg, [Профессиональный многоголосый, 1+1]
Аудио 4: французский, 48 kHz, AC3, 2 ch, 384 kbps avg, [Оригинал]
Субтитры: русские

Имеются неименованные главы/чаптеры.

Исходник: andarmo (Кинозал)





Общее
Уникальный идентификатор : 229039233694321198124939676844961275497 (0xAC4F5A139258AA19A5F09A49F8C39E69)
Полное имя : E:VideoAngelika.1.1964.x264.BDRip.1080p.mkv
Формат : Matroska
Версия формата : Version 4 / Version 2
Размер файла : 11,5 Гбайт
Продолжительность : 1 ч. 55 м.
Общий поток : 14,2 Мбит/сек
Название фильма : Анжелика, маркиза ангелов / Angelique, marquise des anges / 1964 / BDRip -- STarankov
Дата кодирования : UTC 2014-01-20 11:10:00
Программа кодирования : mkvmerge v6.6.0 ('The Edge Of The In Between') built on Dec 1 2013 17:55:00
Библиотека кодирования : libebml v1.3.0 + libmatroska v1.4.1

Видео
Идентификатор : 1
Формат : AVC
Формат/Информация : Advanced Video Codec
Профиль формата : High@L4.1
Параметр CABAC формата : Да
Параметр ReFrames формата : 5 кадров
Идентификатор кодека : V_MPEG4/ISO/AVC
Продолжительность : 1 ч. 55 м.
Битрейт : 12,4 Мбит/сек
Ширина : 1920 пикселей
Высота : 816 пикселей
Соотношение сторон : 2,35:1
Режим частоты кадров : Постоянный
Частота кадров : 24,000 кадра/сек
Цветовое пространство : YUV
Субдискретизация насыщенности : 4:2:0
Битовая глубина : 8 бит
Тип развёртки : Прогрессивная
Бит/(Пиксели*Кадры) : 0.330
Размер потока : 10,1 Гбайт (87%)
Библиотека кодирования : x264 core 138 r2358 9e941d1
Настройки программы : cabac=1 / ref=5 / deblock=1:-1:-1 / analyse=0x3:0x113 / me=umh / subme=10 / psy=1 / psy_rd=1.00:0.15 / mixed_ref=1 / me_range=24 / chroma_me=1 / trellis=2 / 8x8dct=1 / cqm=0 / deadzone=21,11 / fast_pskip=0 / chroma_qp_offset=-3 / threads=6 / lookahead_threads=1 / sliced_threads=0 / nr=0 / decimate=1 / interlaced=0 / bluray_compat=0 / constrained_intra=0 / bframes=6 / b_pyramid=2 / b_adapt=2 / b_bias=0 / direct=1 / weightb=1 / open_gop=0 / weightp=2 / keyint=230 / keyint_min=23 / scenecut=40 / intra_refresh=0 / rc_lookahead=40 / rc=crf / mbtree=0 / crf=18.2 / qcomp=0.60 / qpmin=0 / qpmax=69 / qpstep=4 / vbv_maxrate=50000 / vbv_bufsize=62500 / crf_max=0.0 / nal_hrd=none / ip_ratio=1.40 / pb_ratio=1.30 / aq=1:1.00
Язык : French
Default : Да
Forced : Нет

Аудио #1
Идентификатор : 2
Формат : AC-3
Формат/Информация : Audio Coding 3
Расширение режима : CM (complete main)
Параметр Endianness формата : Big
Идентификатор кодека : A_AC3
Продолжительность : 1 ч. 55 м.
Вид битрейта : Постоянный
Битрейт : 384 Кбит/сек
Каналы : 2 канала
Расположение каналов : Front: L R
Частота : 48,0 КГц
Битовая глубина : 16 бит
Метод сжатия : С потерями
Размер потока : 318 Мбайт (3%)
Заголовок : DUB (с добавлением многоголоски НТВ)
Язык : Russian
Default : Да
Forced : Нет

Аудио #2
Идентификатор : 3
Формат : AC-3
Формат/Информация : Audio Coding 3
Расширение режима : CM (complete main)
Параметр Endianness формата : Big
Идентификатор кодека : A_AC3
Продолжительность : 1 ч. 55 м.
Вид битрейта : Постоянный
Битрейт : 384 Кбит/сек
Каналы : 2 канала
Расположение каналов : Front: L R
Частота : 48,0 КГц
Битовая глубина : 16 бит
Метод сжатия : С потерями
Размер потока : 318 Мбайт (3%)
Заголовок : MVO (HTB)
Язык : Russian
Default : Нет
Forced : Нет

Аудио #3
Идентификатор : 4
Формат : AC-3
Формат/Информация : Audio Coding 3
Расширение режима : CM (complete main)
Параметр Endianness формата : Big
Идентификатор кодека : A_AC3
Продолжительность : 1 ч. 55 м.
Вид битрейта : Постоянный
Битрейт : 384 Кбит/сек
Каналы : 2 канала
Расположение каналов : Front: L R
Частота : 48,0 КГц
Битовая глубина : 16 бит
Метод сжатия : С потерями
Размер потока : 318 Мбайт (3%)
Заголовок : MVO (1+1)
Язык : Ukrainian
Default : Нет
Forced : Нет

Аудио #4
Идентификатор : 5
Формат : AC-3
Формат/Информация : Audio Coding 3
Расширение режима : CM (complete main)
Параметр Endianness формата : Big
Идентификатор кодека : A_AC3
Продолжительность : 1 ч. 55 м.
Вид битрейта : Постоянный
Битрейт : 384 Кбит/сек
Каналы : 2 канала
Расположение каналов : Front: L R
Частота : 48,0 КГц
Битовая глубина : 16 бит
Метод сжатия : С потерями
Размер потока : 318 Мбайт (3%)
Заголовок : Original
Язык : French
Default : Нет
Forced : Нет

Текст
Идентификатор : 6
Формат : UTF-8
Идентификатор кодека : S_TEXT/UTF8
Идентификатор кодека/Информация : UTF-8 Plain Text
Заголовок : русский
Язык : Russian
Default : Нет
Forced : Нет

Меню #1
00:00:00.000 : en:Chapter 01

Меню #2
00:08:00.448 : en:Chapter 01
00:08:45.489 : en:Chapter 02

Меню #3
00:08:56.991 : en:Chapter 02

Меню #4
00:09:55.429 : en:Chapter 02

Меню #5
00:16:18.053 : en:Chapter 02

Меню #6
00:18:21.928 : en:Chapter 03
00:26:56.469 : en:Chapter 04
00:37:31.386 : en:Chapter 05
00:46:45.053 : en:Chapter 06
00:53:41.386 : en:Chapter 07
01:09:44.303 : en:Chapter 08
01:18:50.386 : en:Chapter 09
01:27:50.428 : en:Chapter 10
01:36:11.886 : en:Chapter 11
01:47:41.553 : en:Chapter 12

---[Information] [19.01.2014 21:39:06] avs [info]: 1920x816p 1:1 @ 24/1 fps (cfr)
---[Information] [19.01.2014 21:39:06] x264 [info]: using SAR=1/1
---[Information] [19.01.2014 21:39:06] x264 [info]: using cpu capabilities: MMX2 SSE2Fast SSSE3 SSE4.2
---[Information] [19.01.2014 21:39:06] x264 [info]: profile High, level 4.1
---[Information] [20.01.2014 18:01:22] x264 [info]: frame I:1010 Avg QP:19.41 size:188361
---[Information] [20.01.2014 18:01:23] x264 [info]: frame P:32169 Avg QP:20.34 size:101188
---[Information] [20.01.2014 18:01:23] x264 [info]: frame B:133688 Avg QP:22.49 size: 56785
---[Information] [20.01.2014 18:01:23] x264 [info]: consecutive B-frames: 1.0% 0.7% 3.3% 14.3% 14.3% 64.1% 2.3%
---[Information] [20.01.2014 18:01:23] x264 [info]: mb I I16..4: 6.9% 71.8% 21.3%
---[Information] [20.01.2014 18:01:23] x264 [info]: mb P I16..4: 3.0% 33.7% 5.4% P16..4: 27.4% 22.0% 7.9% 0.0% 0.0% skip: 0.6%
---[Information] [20.01.2014 18:01:23] x264 [info]: mb B I16..4: 1.5% 7.2% 1.1% B16..8: 38.5% 12.0% 2.8% direct:23.0% skip:13.9% L0:40.4% L1:39.5% BI:20.1%
---[Information] [20.01.2014 18:01:23] x264 [info]: 8x8 transform intra:76.6% inter:58.3%
---[Information] [20.01.2014 18:01:23] x264 [info]: coded y,uvDC,uvAC intra: 90.9% 67.8% 30.0% inter: 62.6% 47.1% 2.5%
---[Information] [20.01.2014 18:01:23] x264 [info]: i16 v,h,dc,p: 24% 8% 30% 37%
---[Information] [20.01.2014 18:01:23] x264 [info]: i8 v,h,dc,ddl,ddr,vr,hd,vl,hu: 15% 10% 15% 7% 10% 10% 10% 11% 12%
---[Information] [20.01.2014 18:01:23] x264 [info]: i4 v,h,dc,ddl,ddr,vr,hd,vl,hu: 11% 9% 7% 9% 13% 13% 13% 11% 15%
---[Information] [20.01.2014 18:01:23] x264 [info]: i8c dc,h,v,p: 39% 24% 26% 11%
---[Information] [20.01.2014 18:01:23] x264 [info]: Weighted P-Frames: Y:11.2% UV:6.9%
---[Information] [20.01.2014 18:01:23] x264 [info]: ref P L0: 40.1% 13.2% 24.0% 10.7% 10.5% 1.5% 0.0%
---[Information] [20.01.2014 18:01:23] x264 [info]: ref B L0: 82.5% 12.7% 3.5% 1.3%
---[Information] [20.01.2014 18:01:23] x264 [info]: ref B L1: 95.5% 4.5%
---[Information] [20.01.2014 18:01:23] x264 [info]: kb/s:12699.16
---[Information] [20.01.2014 18:01:23] encoded 166867 frames, 2.28 fps, 12699.16 kb/s
--[Information] [20.01.2014 18:01:26] Final statistics
---[Information] [20.01.2014 18:01:26] Constant Quality Mode: Quality 18 computed...
---[Information] [20.01.2014 18:01:26] Video Bitrate Obtained (approximate): 12700 kbit/s
--[Information] [20.01.2014 18:01:26] MediaInfo
---[Information] File: E:RipAngelika.1.1964.x264.BDRipAngelika.1.1964.x264.BDRip.1080p.mkv


загрузка...
Правила, инструкции, FAQ!!!
Торрент  Добавлен [20 янв 2014, 17:36] Скачать торрент
Скачать торрент
[ Размер 29.23 КБ / Просмотров 9 ]

Статус  
 
Размер  11.52 ГБ
Приватный: Нет (DHT включён)
.torrent скачан  0
Как залить торрент? | Как скачать Torrent? | Как смотреть и слушать онлайн?  


     Отправить личное сообщение
   
Страница 1 из 1
Показать сообщения за:  Поле сортировки  
Начать новую тему Ответить на тему

   Похожие торренты   Автор   Ответы   Просмотры   Последнее сообщение 
В этой теме нет новых непрочитанных сообщений. Скачать торрент Анжелика, маркиза ангелов / Angelique, marquise des anges (2013) DVDRip | D | лицензия

в форуме Драмы, Мелодрамы, Размер: 1.46 ГБ, Здоровье: 0%

Anonymous

0
0|0

19
0

26 фев 2014, 16:55

Anonymous Перейти к последнему сообщению

В этой теме нет новых непрочитанных сообщений. Скачать торрент Анжелика, маркиза ангелов / Angeique, marquise des anges (2013) HDRip | Лицензия

в форуме Драмы, Мелодрамы, Размер: 1.46 ГБ, Здоровье: 100%

Anonymous

0
68|0

32
553

17 апр 2014, 22:18

Anonymous Перейти к последнему сообщению

В этой теме нет новых непрочитанных сообщений. Скачать торрент Проверен [iPod Audiobook]- Анн и Серж Голон - Анжелика маркиза ангелов -m4b

в форуме Аудиокниги (AAC, ALAC), Размер: 767.75 МБ, Здоровье: 100%

Anonymous

0
5|0

1
0

28 авг 2016, 15:45

Anonymous Перейти к последнему сообщению

В этой теме нет новых непрочитанных сообщений. Скачать торрент Анжелика / Angelique [01-05 из 05] (1964-1968) HDTVRip

в форуме Пенталогии, Размер: 6.51 ГБ, Здоровье: 100%

Anonymous

0
97|7

231
133

13 янв 2014, 18:25

Anonymous Перейти к последнему сообщению

В этой теме нет новых непрочитанных сообщений. Скачать торрент Анжелика / Angelique [01-05 из 05] (1964-1968) HDTVRip 720p

в форуме Пенталогии, Размер: 17.64 ГБ, Здоровье: 100%

Anonymous

0
7|0

199
24

13 янв 2014, 18:15

Anonymous Перейти к последнему сообщению



Сейчас этот форум просматривают: нет зарегистрированных пользователей и гости: 1


Вы не можете начинать темы
Вы не можете отвечать на сообщения
Вы не можете редактировать свои сообщения
Вы не можете удалять свои сообщения
Вы не можете добавлять вложения

Перейти:  

!ВНИМАНИЕ!
 Ресурс не предоставляет электронные версии произведений, а занимается лишь коллекционированием и каталогизацией ссылок, присылаемых и публикуемых на форуме нашими читателями. Если вы являетесь правообладателем какого-либо представленного материала и не желаете чтобы ссылка на него находилась в нашем каталоге, свяжитесь с нами и мы незамедлительно удалим её. Файлы для обмена на трекере предоставлены пользователями сайта, и администрация не несёт ответственности за их содержание. Просьба не заливать файлы, защищенные авторскими правами, а также файлы нелегального содержания!