На всех торрентах на трекере установлена скидка на скачивание в размере 100 процентов(а).
 Возможность скачивания торрента НЕ зависит от ограничений при низком ратио, низком аплоаде, требуемом ратио или требуемом аплоаде.


Начать новую тему Ответить на тему
Статистика раздачи
Размер: 1.37 ГБ | Добавлен: 20 янв 2014, 15:26 | Скачали: 0
Сидеров: 0  [0 байт/сек]    Личеров: 0  [0 байт/сек]
Пред. тема | След. тема 

Автор
Сообщение

СообщениеДобавлено: 20 янв 2014, 15:26 

Информация о фильме:



Название: Тупик
Оригинальное название: Dead End
Год выхода: 2003
Жанр: Ужасы, Мистика, Триллер, Комедия



Режиссеры: Жан-Баптист Андреа /Jean-Baptiste Andrea/, Фабрис Канепа /Fabrice Canepa/
Сценаристы: Жан-Баптист Андреа /Jean-Baptiste Andrea/, Фабрис Канепа /Fabrice Canepa/
Оператор: Александр Буоно /Alexander Buono/
Композитор: Грег Де Беллис /Greg De Belles/



В фильме снимались:
Рэй Уайз - Ray Wise /Frank Harrington/
Лин Шэй - Lin Shaye /Laura Harrington/
Мик Кэйн - Mick Cain /Richard Harrington/
Александра Холден - Alexandra Holden /Marion Harrington/
Билли Эшер - Billy Asher /Brad Miller/
Эмбер Смит - Amber Smith /Lady in White/
и другие...



Описание: Все последние 20 лет Фрэнк отвозил семью на Рождество к своей теще и всегда ездил одной и той же дорогой. На это раз он решил сократить путь, проехав через лес. И совершенно напрасно…

Сценарий фильма в общей сложности писался около 6 лет, а сам фильм первоначально задумывался как триллер с неожиданной финальной развязкой и почти без кровавых эффектов, однако впоследствии было решено сделать значительный упор на хоррор-составляющей. В качестве места съёмок был изначально выбран Париж, а фильм должен был выйти сразу на DVD и быть англоязычным. Уже в 2000 году планировалось, собственно, начать съёмки с возможным привлечением англоязычных актёров, проживающих во Франции. Но немногим позже сценарием фильма заинтересовался продюсер Джеймс Хат — друг режиссёров, и предложил выделить на производство фильма свои деньги. Хат связался со своими людьми в США и договорился с несколькими продюсерами по поводу съёмок фильма. В итоге действие и места съёмок картины были перенесены из Парижа в Лос-Анджелес.

В дальнейшем съёмки начались в августе 2001 года и проходили около 18 дней. При этом одной из основных проблем съёмочного процесса была невозможность найти подходящее, не загруженное движением автомобильное полотно в Лос-Анджелесе, ввиду чего режиссёры уже начали производить съёмки фильма в пустыне, попутно переделывая сценарий. Но впоследствии подходящее место для съёмок дороги было найдено — им стал один из муниципальных парков Лос-Анджелеса, в котором была расположена подходящая дорога, закрывавшаяся в ночное время (дорога была довольно коротка и не превышала 600 метров).



Страна:
Выпущено: Sagittaire Films, Captain Movies
Продолжительность: 01:19:54
Перевод: Профессиональный, многоголосый (закадровый)
Субтитры: Русские, Аглицкие /VobSub/









phpBB [media]


[size=1]General
Format : Matroska
File size : 1.36 GiB
Duration : 1h 19mn
Overall bit rate : 2 442 Kbps
Encoded date : UTC 2011-03-30 10:43:24
Writing application : mkvmerge v3.3.0 ('Language') built on Mar 24 2010 14:59:24
Writing library : libebml v0.8.0 + libmatroska v0.9.0

Video
ID : 1
Format : AVC
Format/Info : Advanced Video Codec
Format profile : High@L3.0
Format settings, CABAC : Yes
Format settings, ReFrames : 5 frames
Codec ID : V_MPEG4/ISO/AVC
Duration : 1h 19mn
Bit rate : 1 673 Kbps
Width : 784 pixels
Height : 424 pixels
Display aspect ratio : 16:9
Frame rate : 25.000 fps
Color space : YUV
Chroma subsampling : 4:2:0
Bit depth : 8 bits
Scan type : Progressive
Bits/(Pixel*Frame) : 0.201
Stream size : 929 MiB (67%)
Writing library : x264 core 92 r1510 33d382a
Encoding settings : cabac=1 / ref=5 / deblock=1:-1:-1 / analyse=0x3:0x3 / me=dia / subme=1 / psy=1 / psy_rd=0.00:0.00 / mixed_ref=0 / me_range=16 / chroma_me=1 / trellis=2 / 8x8dct=1 / cqm=0 / deadzone=21,11 / fast_pskip=1 / chroma_qp_offset=0 / threads=1 / sliced_threads=0 / nr=0 / decimate=1 / interlaced=0 / constrained_intra=0 / bframes=3 / b_pyramid=2 / b_adapt=1 / b_bias=0 / direct=3 / wpredb=1 / wpredp=0 / keyint=250 / keyint_min=25 / scenecut=40 / intra_refresh=0 / rc=2pass / mbtree=0 / bitrate=1673 / ratetol=1.0 / qcomp=0.60 / qpmin=10 / qpmax=51 / qpstep=4 / cplxblur=20.0 / qblur=0.5 / ip_ratio=1.40 / pb_ratio=1.30 / aq=1:1.00
Language : English

Audio #1
ID : 2
Format : AC-3
Format/Info : Audio Coding 3
Mode extension : CM (complete main)
Codec ID : A_AC3
Duration : 1h 19mn
Bit rate mode : Constant
Bit rate : 384 Kbps
Channel(s) : 6 channels
Channel positions : Front: L C R, Side: L R, LFE
Sampling rate : 48.0 KHz
Bit depth : 16 bits
Compression mode : Lossy
Stream size : 219 MiB (16%)
Title : Профессиональный, многоголосый (закадровый)
Language : Russian

Audio #2
ID : 3
Format : AC-3
Format/Info : Audio Coding 3
Mode extension : CM (complete main)
Codec ID : A_AC3
Duration : 1h 19mn
Bit rate mode : Constant
Bit rate : 384 Kbps
Channel(s) : 6 channels
Channel positions : Front: L C R, Side: L R, LFE
Sampling rate : 48.0 KHz
Bit depth : 16 bits
Compression mode : Lossy
Stream size : 219 MiB (16%)
Title : Оригинальный, аглицкий
Language : English



Качество: DVDRip-AVC /Исходник DVD9/
Формат: MKV
Видео кодек: x264
Аудио кодек: AC3
Видео: MPEG4 Video (H264) 784x424, 25.00fps, ~1673 kbps avg, 0.20 bit/pixel
Аудио 1: Dolby AC3 | 384Kbps | 6 channels | 16bit | 48000khz /Многоголосый/
Аудио 2: Dolby AC3 | 384Kbps | 6 channels | 16bit | 48000khz /Аглицкий/






загрузка...
Правила, инструкции, FAQ!!!
Торрент  Добавлен [20 янв 2014, 15:26] Скачать торрент
Скачать торрент
[ Размер 14.21 КБ / Просмотров 9 ]

Статус  
 
Размер  1.37 ГБ
Приватный: Нет (DHT включён)
.torrent скачан  0
Как залить торрент? | Как скачать Torrent? | Как смотреть и слушать онлайн?  


     Отправить личное сообщение
   
Страница 1 из 1
Показать сообщения за:  Поле сортировки  
Начать новую тему Ответить на тему

   Похожие торренты   Автор   Ответы   Просмотры   Последнее сообщение 
В этой теме нет новых непрочитанных сообщений. Скачать торрент Поворот не туда 2: Тупик / Wrong Turn 2: Dead End (Джо Линч / Joe Lynch) [2007, США, ужасы, боевик, триллер, BDRip] Dub

в форуме Ужасы, Размер: 2.19 ГБ, Здоровье: 0%

Anonymous

0
0|0

39
0

19 апр 2014, 18:51

Anonymous Перейти к последнему сообщению

В этой теме нет новых непрочитанных сообщений. Скачать торрент Проверен (Rock) Grateful Dead - Workingman's Dead (1970) - 2003 (Remastered, HDCD), FLAC (tracks+.cue) lossless

в форуме Classic Rock & Hard Rock, Размер: 477.46 МБ, Здоровье: 0%

Anonymous

0
0|0

0
0

04 сен 2016, 19:14

Anonymous Перейти к последнему сообщению

В этой теме нет новых непрочитанных сообщений. Скачать торрент Проверен (Punk Rock) Сисичный Тупик - Дискография (9 альбомов + Неизданное) - 1999-2015, MP3, 128-320 kbps

в форуме Русский Рок, Размер: 810.29 МБ, Здоровье: 0%

Anonymous

0
0|0

8
0

22 авг 2016, 01:43

Anonymous Перейти к последнему сообщению

В этой теме нет новых непрочитанных сообщений. Скачать торрент Проверен (Heavy Metal) Riff Raff (Finland) - Give The Dead Man Some Water (2003 reissue) - 1983/2003, FLAC (image+.cue), lossless

в форуме Heavy, Power, Progressive (Metal), Размер: 253.52 МБ, Здоровье: 100%

Anonymous

0
1|0

1
0

11 окт 2016, 01:42

Anonymous Перейти к последнему сообщению

В этой теме нет новых непрочитанных сообщений. Скачать торрент Ни жив ни мёртв 2 / Half Past Dead 2 (2007) DVDRip | P | Лицензия

в форуме Боевики, Размер: 1.37 ГБ, Здоровье: 0%

Anonymous

0
0|0

23
0

03 янв 2014, 16:39

Anonymous Перейти к последнему сообщению



Сейчас этот форум просматривают: Google [Bot] и гости: 2


Вы не можете начинать темы
Вы не можете отвечать на сообщения
Вы не можете редактировать свои сообщения
Вы не можете удалять свои сообщения
Вы не можете добавлять вложения

Перейти:  

!ВНИМАНИЕ!
 Ресурс не предоставляет электронные версии произведений, а занимается лишь коллекционированием и каталогизацией ссылок, присылаемых и публикуемых на форуме нашими читателями. Если вы являетесь правообладателем какого-либо представленного материала и не желаете чтобы ссылка на него находилась в нашем каталоге, свяжитесь с нами и мы незамедлительно удалим её. Файлы для обмена на трекере предоставлены пользователями сайта, и администрация не несёт ответственности за их содержание. Просьба не заливать файлы, защищенные авторскими правами, а также файлы нелегального содержания!