На всех торрентах на трекере установлена скидка на скачивание в размере 100 процентов(а).
 Возможность скачивания торрента НЕ зависит от ограничений при низком ратио, низком аплоаде, требуемом ратио или требуемом аплоаде.


Начать новую тему Ответить на тему
Статистика раздачи
Размер: 2.23 ГБ | Добавлен: 20 янв 2014, 10:46 | Скачали: 0
Сидеров: 0  [0 байт/сек]    Личеров: 0  [0 байт/сек]
Пред. тема | След. тема 

Автор
Сообщение

СообщениеДобавлено: 20 янв 2014, 10:46 

Название: Дочь моего босса
Оригинальное название: My Boss's Daughter
Год выхода: 2003
Жанр: Комедия
Режиссер: Дэвид Цукер

В ролях: Марк Эйсбетт, Эштон Кутчер, Джон Абрахамс, Тара Рейд, Молли Шеннон, Теренс Стэмп, Энди Рихтер, Майкл Мэдсен, Райан Цвик, Патрик Крэншоу, Анджела Литтл, Дэвид Кехнер, Кармен Электра, Джеффри Тэмбор, Кенан Томпсон

О фильме:
Согласившись присмотреть за домом своего босса, молодой человек рассчитывает, что это даст ему шанс сблизиться с девушкой, в которую он влюблен — дочерью босса. Но в его планы не входила длинная череда непрошенных гостей, не позволяющих выполнить задуманную миссию. Не говоря уже о старшем брате девушке, который скрывается от местных наркоторговцев.



Страна: США
Студия: Dimension Films
Продолжительность: 01:30:07
Перевод: Дублированный, профессиональный (многоголосый закадровый)


Кодек: h.264
Качество: BDRip-AVC
Видео: 2390 Кбит/с, 1024x576, 23.976 кадр/с

Звук:
• №1: Русский (AC3, 6 ch, 384 Кбит/с) Дублированный
• №2: Русский (AC3, 6 ch, 384 Кбит/с) Профессиональный многоголосый
• №3: Английский (АС3, 6 ch, 384 Кбит/с)

Субтитры: Русские, английские

---------------------------------------------------------------------------
x264 [info]: frame I:1476 Avg QP:16.71 size: 73204
x264 [info]: frame P:26550 Avg QP:19.41 size: 25825
x264 [info]: frame B:101599 Avg QP:21.20 size: 8080
---------------------------------------------------------------------------

Полное имя : My.Boss's.Daughter.2003.x264.BDRip.(AVC).0ptimus.mkv
Формат : Matroska
Версия формата : Version 4 / Version 2
Размер файла : 2,23 Гбайт
Продолжительность : 1 ч. 30 м.
Общий поток : 3543 Кбит/сек
Название фильма : Дочь моего босса | My Boss's Daughter [2003] -=BDRip (AVC) by 0ptimus=-
Дата кодирования : UTC 2013-11-13 18:44:40
Программа кодирования : mkvmerge v6.1.0 ('Old Devil') built on Mar 2 2013 14:32:37
Библиотека кодирования : libebml v1.3.0 + libmatroska v1.4.0

Видео
Идентификатор : 1
Формат : AVC
Формат/Информация : Advanced Video Codec
Профиль формата : High@L4.1
Параметр CABAC формата : Да
Параметр ReFrames формата : 9 кадров
Идентификатор кодека : V_MPEG4/ISO/AVC
Продолжительность : 1 ч. 30 м.
Битрейт : 2390 Кбит/сек
Ширина : 1024 пикселя
Высота : 576 пикселей
Соотношение сторон : 16:9
Частота кадров : 23,976 кадра/сек
Цветовое пространство : YUV
Субдискретизация насыщенности : 4:2:0
Битовая глубина : 8 бит
Тип развёртки : Прогрессивная
Бит/(Пиксели*Кадры) : 0.169
Размер потока : 1,46 Гбайт (65%)
Заголовок : Rip by 0ptimus
Библиотека кодирования : x264 core 133 r2334 a3ac64b
Настройки программы : cabac=1 / ref=9 / deblock=1:-3:-3 / analyse=0x3:0x113 / me=umh / subme=11 / psy=1 / psy_rd=1.00:0.20 / mixed_ref=1 / me_range=48 / chroma_me=1 / trellis=2 / 8x8dct=1 / cqm=0 / deadzone=21,11 / fast_pskip=0 / chroma_qp_offset=-3 / threads=4 / lookahead_threads=1 / sliced_threads=0 / nr=0 / decimate=0 / interlaced=0 / bluray_compat=0 / constrained_intra=0 / bframes=11 / b_pyramid=2 / b_adapt=2 / b_bias=0 / direct=3 / weightb=1 / open_gop=0 / weightp=2 / keyint=240 / keyint_min=23 / scenecut=40 / intra_refresh=0 / rc_lookahead=40 / rc=2pass / mbtree=0 / bitrate=2390 / ratetol=1.0 / qcomp=0.60 / qpmin=0 / qpmax=69 / qpstep=4 / cplxblur=20.0 / qblur=0.5 / vbv_maxrate=50000 / vbv_bufsize=50000 / nal_hrd=none / ip_ratio=1.40 / pb_ratio=1.30 / aq=1:1.00
Язык : English

Аудио #1
Идентификатор : 2
Формат : AC-3
Формат/Информация : Audio Coding 3
Расширение режима : CM (complete main)
Идентификатор кодека : A_AC3
Продолжительность : 1 ч. 30 м.
Вид битрейта : Постоянный
Битрейт : 384 Кбит/сек
Каналы : 6 каналов
Расположение каналов : Front: L C R, Side: L R, LFE
Частота : 48,0 КГц
Битовая глубина : 16 бит
Метод сжатия : С потерями
Размер потока : 248 Мбайт (11%)
Заголовок : Дублированный AC3 5.1 @ 384 kbps
Язык : Russian

Аудио #2
Идентификатор : 3
Формат : AC-3
Формат/Информация : Audio Coding 3
Расширение режима : CM (complete main)
Идентификатор кодека : A_AC3
Продолжительность : 1 ч. 30 м.
Вид битрейта : Постоянный
Битрейт : 384 Кбит/сек
Каналы : 6 каналов
Расположение каналов : Front: L C R, Side: L R, LFE
Частота : 48,0 КГц
Битовая глубина : 16 бит
Метод сжатия : С потерями
Размер потока : 248 Мбайт (11%)
Заголовок : Многоголосый закадровый [R5] AC3 5.1 @ 384 kbps
Язык : Russian

Аудио #3
Идентификатор : 4
Формат : AC-3
Формат/Информация : Audio Coding 3
Расширение режима : CM (complete main)
Идентификатор кодека : A_AC3
Продолжительность : 1 ч. 30 м.
Вид битрейта : Постоянный
Битрейт : 384 Кбит/сек
Каналы : 6 каналов
Расположение каналов : Front: L C R, Side: L R, LFE
Частота : 48,0 КГц
Битовая глубина : 16 бит
Метод сжатия : С потерями
Размер потока : 248 Мбайт (11%)
Заголовок : AC3 5.1 @ 384 kbps
Язык : English

Текст #1
Идентификатор : 5
Формат : UTF-8
Идентификатор кодека : S_TEXT/UTF8
Идентификатор кодека/Информация : UTF-8 Plain Text
Язык : Russian

Текст #2
Идентификатор : 6
Формат : UTF-8
Идентификатор кодека : S_TEXT/UTF8
Идентификатор кодека/Информация : UTF-8 Plain Text
Язык : English

Меню
00:00:00.000 : en:
00:04:03.243 : en:
00:11:18.636 : en:
00:16:10.970 : en:
00:28:01.680 : en:
00:32:47.924 : en:
00:38:10.288 : en:
00:43:22.600 : en:
00:48:35.746 : en:
00:53:35.546 : en:
01:00:15.070 : en:
01:07:01.017 : en:
01:12:28.344 : en:
01:16:50.856 : en:
01:19:25.719 : en:




Релиз от:
загрузка...
Правила, инструкции, FAQ!!!
Торрент  Добавлен [20 янв 2014, 10:46] Скачать торрент
Скачать торрент
[ Размер 22.88 КБ / Просмотров 8 ]

Статус  
 
Размер  2.23 ГБ
Приватный: Нет (DHT включён)
.torrent скачан  0
Как залить торрент? | Как скачать Torrent? | Как смотреть и слушать онлайн?  


     Отправить личное сообщение
   
Страница 1 из 1
Показать сообщения за:  Поле сортировки  
Начать новую тему Ответить на тему

   Похожие торренты   Автор   Ответы   Просмотры   Последнее сообщение 
В этой теме нет новых непрочитанных сообщений. Скачать торрент Проверен Дочь Гидеона / Gideon's Daughter (2005) DVDRip | L

в форуме Драмы, Мелодрамы, Размер: 1.45 ГБ, Здоровье: 33%

Anonymous

0
3|9

85
7

09 июл 2015, 22:36

Anonymous Перейти к последнему сообщению

В этой теме нет новых непрочитанных сообщений. Скачать торрент Проверен (Symphonic Prog) Anyone's Daughter - Anyone's Daughter (1980) - 2012, WavPack (image+.cue), lossless

в форуме Progressive & Art-Rock, Размер: 411.8 МБ, Здоровье: 14%

Anonymous

0
4|28

14
1

01 сен 2016, 23:32

Anonymous Перейти к последнему сообщению

В этой теме нет новых непрочитанных сообщений. Скачать торрент Проверен (Progressive Rock) Anyone's Daughter - Anyone's Daughter - 1980(1993), FLAC (image+.cue), lossless

в форуме Progressive & Art-Rock, Размер: 242.1 МБ, Здоровье: 100%

Anonymous

0
2|1

6
0

01 сен 2016, 23:31

Anonymous Перейти к последнему сообщению

В этой теме нет новых непрочитанных сообщений. Скачать торрент Проверен Павлов А. А. / Павловъ А. А. - Вечер у моего соседа. Рассказы приятелей / Вечеръ у моего сосѣда. Рассказы прiятелей [1836, PDF, RUS]

в форуме Русская литература, Размер: 5.88 МБ, Здоровье: 0%

Anonymous

0
0|0

0
0

07 сен 2016, 22:16

Anonymous Перейти к последнему сообщению

В этой теме нет новых непрочитанных сообщений. Скачать торрент Проверен Кай Мейер | Дочь алхимика [2003] [FB2]

в форуме Детективы и Боевики, Размер: 1.66 МБ, Здоровье: 100%

Anonymous

0
1|1

26
0

20 сен 2014, 21:29

Anonymous Перейти к последнему сообщению



Сейчас этот форум просматривают: нет зарегистрированных пользователей и гости: 2


Вы не можете начинать темы
Вы не можете отвечать на сообщения
Вы не можете редактировать свои сообщения
Вы не можете удалять свои сообщения
Вы не можете добавлять вложения

Перейти:  

!ВНИМАНИЕ!
 Ресурс не предоставляет электронные версии произведений, а занимается лишь коллекционированием и каталогизацией ссылок, присылаемых и публикуемых на форуме нашими читателями. Если вы являетесь правообладателем какого-либо представленного материала и не желаете чтобы ссылка на него находилась в нашем каталоге, свяжитесь с нами и мы незамедлительно удалим её. Файлы для обмена на трекере предоставлены пользователями сайта, и администрация не несёт ответственности за их содержание. Просьба не заливать файлы, защищенные авторскими правами, а также файлы нелегального содержания!