На всех торрентах на трекере установлена скидка на скачивание в размере 100 процентов(а).
 Возможность скачивания торрента НЕ зависит от ограничений при низком ратио, низком аплоаде, требуемом ратио или требуемом аплоаде.


Начать новую тему Ответить на тему
Статистика раздачи
Размер: 4.25 ГБ | Добавлен: 19 янв 2014, 21:55 | Скачали: 0
Сидеров: 0  [0 байт/сек]    Личеров: 0  [0 байт/сек]
Пред. тема | След. тема 

Автор
Сообщение

СообщениеДобавлено: 19 янв 2014, 21:55 

Информация о фильме
Название: Капитан Филлипс
Оригинальное название: Captain Phillips
Год выхода: 2013
Жанр: триллер, драма, криминал, боевик
Режиссер: Пол Гринграсс

В ролях: Том Хэнкс, Баркхад Абди, Баркхад Абдирахман, Файсал Ахмед, Махат М. Али, Майкл Чернус, Юл Васкез, Макс Мартини, Кэтрин Кинер

О ФИЛЬМЕ
В начале апреля 2009 года, близ берегов Африки, несколько сомалийских пиратов атакуют и пытаются захватить массивный контейнеровоз MV Maersk Alabama. Команда корабля активно сопротивляется и в конце концов не даёт взять себя в плен. Захватчики вынуждены ретироваться и покинуть судно на небольшом катере, прихватив с собой немолодого капитана Ричарда Филлипса…



Страна: США
Производство: Michael De Luca Productions, Translux, Trigger Street Productions
Продолжительность: 02:14:04
Перевод: Профессиональный (полное дублирование) [Чистый звук] + Профессиональный (двухголосый)

Файл
Качество: BDRip 720p
Формат: MKV
Видео: AVC, 1280x534 (2.40:1) at 23.976 fps, AVC at 3767 kbps avg, 0.230 bit/pixel
Аудио 1: Русский / AC3 / 2ch / 384 kbps | Дубляж [Чистый звук]
Аудио 2: Русский / AC3 / 6ch / 384 kbps | Профессиональный (двухголосый)
Дополнительно: Сохранены оригинальные чаптеры как на Blu-Ray






General
Unique ID : 240151827504098838519422513551390430889 (0xB4AB8F4090D9843BAEF39E485CE656A9)
Complete name : H:Captain.Phillips.2013.BD.720.Hot-Film.mkv
Format : Matroska
Format version : Version 2
File size : 4.25 GiB
Duration : 2h 14mn
Overall bit rate : 4 535 Kbps
Encoded date : UTC 2014-01-19 17:03:11
Writing application : mkvmerge v5.8.0 ('No Sleep / Pillow') built on Sep 2 2012 15:37:04
Writing library : libebml v1.2.3 + libmatroska v1.3.0

Video
ID : 1
Format : AVC
Format/Info : Advanced Video Codec
Format profile : High@L4.1
Format settings, CABAC : Yes
Format settings, ReFrames : 9 frames
Codec ID : V_MPEG4/ISO/AVC
Duration : 2h 14mn
Bit rate : 3 767 Kbps
Width : 1 280 pixels
Height : 534 pixels
Display aspect ratio : 2.40:1
Frame rate mode : Constant
Frame rate : 23.976 fps
Color space : YUV
Chroma subsampling : 4:2:0
Bit depth : 8 bits
Scan type : Progressive
Bits/(Pixel*Frame) : 0.230
Stream size : 3.44 GiB (81%)
Writing library : x264 core 138 r2358 9e941d1
Encoding settings : cabac=1 / ref=9 / deblock=1:-3:-3 / analyse=0x3:0x113 / me=umh / subme=11 / psy=1 / psy_rd=1.05:0.10 / mixed_ref=1 / me_range=32 / chroma_me=1 / trellis=2 / 8x8dct=1 / cqm=0 / deadzone=21,11 / fast_pskip=0 / chroma_qp_offset=-3 / threads=2 / lookahead_threads=1 / sliced_threads=0 / nr=0 / decimate=0 / interlaced=0 / bluray_compat=0 / constrained_intra=0 / bframes=8 / b_pyramid=2 / b_adapt=2 / b_bias=0 / direct=3 / weightb=1 / open_gop=0 / weightp=2 / keyint=240 / keyint_min=23 / scenecut=40 / intra_refresh=0 / rc_lookahead=40 / rc=2pass / mbtree=0 / bitrate=3767 / ratetol=1.0 / qcomp=0.60 / qpmin=0 / qpmax=69 / qpstep=4 / cplxblur=20.0 / qblur=0.5 / vbv_maxrate=50000 / vbv_bufsize=62500 / nal_hrd=none / ip_ratio=1.40 / pb_ratio=1.30 / aq=1:1.00
Language : English
Default : Yes
Forced : No

Audio #1
ID : 2
Format : AC-3
Format/Info : Audio Coding 3
Mode extension : CM (complete main)
Format settings, Endianness : Big
Codec ID : A_AC3
Duration : 2h 14mn
Bit rate mode : Constant
Bit rate : 384 Kbps
Channel(s) : 2 channels
Channel positions : Front: L R
Sampling rate : 48.0 KHz
Bit depth : 16 bits
Compression mode : Lossy
Stream size : 368 MiB (8%)
Title : Чистый звук
Language : Russian
Default : Yes
Forced : No

Audio #2
ID : 3
Format : AC-3
Format/Info : Audio Coding 3
Mode extension : CM (complete main)
Format settings, Endianness : Big
Codec ID : A_AC3
Duration : 2h 14mn
Bit rate mode : Constant
Bit rate : 384 Kbps
Channel(s) : 6 channels
Channel positions : Front: L C R, Side: L R, LFE
Sampling rate : 48.0 KHz
Bit depth : 16 bits
Compression mode : Lossy
Stream size : 368 MiB (8%)
Title : P2
Language : Russian
Default : No
Forced : No

Menu
00:00:00.000 : :Chapter 01
00:09:12.927 : :Chapter 02
00:15:30.138 : :Chapter 03
00:22:48.742 : :Chapter 04
00:30:11.435 : :Chapter 05
00:39:38.876 : :Chapter 06
00:48:01.003 : :Chapter 07
00:58:24.751 : :Chapter 08
01:04:36.539 : :Chapter 09
01:13:02.837 : :Chapter 10
01:19:14.249 : :Chapter 11
01:25:41.261 : :Chapter 12
01:34:14.023 : :Chapter 13
01:41:44.598 : :Chapter 14
01:51:32.102 : :Chapter 15
02:02:38.851 : :Chapter 16

Релиз от:
загрузка...
Правила, инструкции, FAQ!!!
Торрент  Добавлен [19 янв 2014, 21:55] Скачать торрент
Скачать торрент
[ Размер 21.72 КБ / Просмотров 12 ]

Статус  
 
Размер  4.25 ГБ
Приватный: Нет (DHT включён)
.torrent скачан  0
Как залить торрент? | Как скачать Torrent? | Как смотреть и слушать онлайн?  


     Отправить личное сообщение
   
Страница 1 из 1
Показать сообщения за:  Поле сортировки  
Начать новую тему Ответить на тему

   Похожие торренты   Автор   Ответы   Просмотры   Последнее сообщение 
В этой теме нет новых непрочитанных сообщений. Скачать торрент Капитан Филлипс / Captain Phillips (2013) BDRip 1080p | Чистый звук

в форуме 720p | 1080p, Размер: 14.88 ГБ, Здоровье: 0%

Anonymous

0
0|0

32
0

19 янв 2014, 22:24

Anonymous Перейти к последнему сообщению

В этой теме нет новых непрочитанных сообщений. Скачать торрент Капитан Филлипс / Captain Phillips (2013) HDRip | Чистый звук

в форуме Боевики, Размер: 2.05 ГБ, Здоровье: 0%

Anonymous

0
0|0

44
0

19 янв 2014, 21:48

Anonymous Перейти к последнему сообщению

В этой теме нет новых непрочитанных сообщений. Скачать торрент Капитан Филлипс / Captain Phillips (2013) BDRip 720p | P2

в форуме 720p | 1080p, Размер: 8.33 ГБ, Здоровье: 0%

Anonymous

0
0|0

44
0

11 янв 2014, 22:06

Anonymous Перейти к последнему сообщению

В этой теме нет новых непрочитанных сообщений. Скачать торрент Капитан Филлипс / Captain Phillips (2013) DVDRip | Звук с TS

в форуме Боевики, Размер: 1.36 ГБ, Здоровье: 0%

Anonymous

0
0|0

53
0

07 янв 2014, 09:33

Anonymous Перейти к последнему сообщению

В этой теме нет новых непрочитанных сообщений. Скачать торрент Проверен Капитан Филлипс / Captain Phillips (Пол Гринграсс) [2013, США, триллер, драма, криминал, боевик, BDRip, 480p] Dub + Original + sub (rus, eng)

в форуме Фильмы для iPod, iPhone, iPad, Размер: 1.63 ГБ, Здоровье: 100%

Гость

0
12|4

56
1

18 май 2015, 10:54

Гость Перейти к последнему сообщению



Сейчас этот форум просматривают: нет зарегистрированных пользователей и гости: 3


Вы не можете начинать темы
Вы не можете отвечать на сообщения
Вы не можете редактировать свои сообщения
Вы не можете удалять свои сообщения
Вы не можете добавлять вложения

Перейти:  

!ВНИМАНИЕ!
 Ресурс не предоставляет электронные версии произведений, а занимается лишь коллекционированием и каталогизацией ссылок, присылаемых и публикуемых на форуме нашими читателями. Если вы являетесь правообладателем какого-либо представленного материала и не желаете чтобы ссылка на него находилась в нашем каталоге, свяжитесь с нами и мы незамедлительно удалим её. Файлы для обмена на трекере предоставлены пользователями сайта, и администрация не несёт ответственности за их содержание. Просьба не заливать файлы, защищенные авторскими правами, а также файлы нелегального содержания!