На всех торрентах на трекере установлена скидка на скачивание в размере 100 процентов(а).
 Возможность скачивания торрента НЕ зависит от ограничений при низком ратио, низком аплоаде, требуемом ратио или требуемом аплоаде.


Начать новую тему Ответить на тему
Статистика раздачи
Размер: 1.97 ГБ | Добавлен: 19 янв 2014, 07:17 | Скачали: 0
Сидеров: 0  [0 байт/сек]    Личеров: 0  [0 байт/сек]
Пред. тема | След. тема 

Автор
Сообщение

СообщениеДобавлено: 19 янв 2014, 07:17 

Название: Ирина Палм сделает ЭТО лучше
Оригинальное название: Irina Palm
Год выхода: 2007
Жанр: Драма, трагикомедия
Режиссер: Сэм Гарбарски

В ролях: Марианна Фэйтфулл /Marianne Faithfull/, Мики Манойлович /Miki Manojlovic/, Кевин Бишоп /Kevin Bishop/, Сиобэн Хьюлетт /Siobhan Hewlett/, Дорка Гриллус /Dorka Gryllus/, Дженни Агаттер /Jenny Agutter/, Кори Бурк /Corey Burke/, Мэг Винн Оуэн /Meg Wynn Owen/, Сьюзэн Хитч /Susan Hitch/, Флип Уэбстер /Flip Webster/, Тони О'Брайэн /Tony O'Brien/, Жюль Вернер /Jules Werner/, Энн Квинсберри /Ann Queensberry/, Джун Бэйли /June Bailey/, Джонатан Койн /Jonathan Coyne/, Тим Плестер /Tim Plester/, Малина Эберт /Malina Ebert/, Питер Спрул /Peter Sproule/, Хассани Шапи /Hassani Shapi/, Лайам Рейли /Liam Reilly/

О фильме:
Пятидесятилетняя Мэгги должна раздобыть крупную сумму для лечения умирающего внука. Она едет из своего пригорода в лондонский злачный квартал Сохо и тайком нанимается в ночной клуб, сексуальной работницей. Ее функции сопоставимы с мытьем писсуаров, но носят более интимный характер: она сидит в закутке с дыркой в стене и утоляет естественную потребность невидимых клиентов простейшим, но тоже требующим мастерства способом. А так как женщина она артистичная, чуткая и умелая, то и искусство ее быстро растет, к новоявленной звезде под «сценическим псевдонимом» Ирина Палм тянется очередь, клуб пользуется успехом.



Страна: Германия, Франция, Великобритания, Бельгия, Люксембург
Студия: Entre Chien et Loup, Pallas Film, Samsa Film
Продолжительность: 01:39:22.208
Перевод: Профессиональный (многоголосый закадровый) R5


Кодек: h.264
Качество: DVDRip-AVC
Видео: 704x560 (16:9) @ 996x560 (анаморф), 25.000 fps, AVC, ~1937 Kbps, 0.197 bits/pixel
Звук:
Английский, 48.0 KHz, AC3, 6 ch, 448 Kbps
Русский, 48.0 KHz, AC3, 6 ch, 448 Kbps
Субтитры: Русские, SRT(UTF-8) (на основе перевода и оригинальной дорожки)

Исходник R2

Общее
Уникальный идентификатор : 205370194931041669617729541591977301244 (0x9A80DC5E0F39BF59B3C4BEA2A7D214FC)
Полное имя : D:FilmsIrina_Palm_sdelaet_eto_lutshe.2007.DVDRip-AVC.mkv
Формат : Matroska
Версия формата : Version 4 / Version 2
Размер файла : 1,97 Гбайт
Продолжительность : 1 ч. 39 м.
Общий поток : 2835 Кбит/сек
Дата кодирования : UTC 2014-01-18 19:25:47
Программа кодирования : mkvmerge v6.7.0 ('Back to the Ground') 64bit built on Jan 8 2014 15:10:52
Библиотека кодирования : libebml v1.3.0 + libmatroska v1.4.1

Видео
Идентификатор : 1
Формат : AVC
Формат/Информация : Advanced Video Codec
Профиль формата : High@L4.1
Параметр CABAC формата : Да
Параметр ReFrames формата : 16 кадров
Идентификатор кодека : V_MPEG4/ISO/AVC
Продолжительность : 1 ч. 39 м.
Битрейт : 1937 Кбит/сек
Ширина : 704 пикселя
Высота : 560 пикселей
Соотношение сторон : 16:9
Соотношение сторон в оригинале : 16:9
Режим частоты кадров : Постоянный
Частота кадров : 25,000 кадров/сек
Цветовое пространство : YUV
Субдискретизация насыщенности : 4:2:0
Битовая глубина : 8 бит
Тип развёртки : Прогрессивная
Бит/(Пиксели*Кадры) : 0.197
Размер потока : 1,31 Гбайт (66%)
Библиотека кодирования : x264 core 138 r2358 9e941d1
Настройки программы : cabac=1 / ref=16 / deblock=1:0:0 / analyse=0x3:0x133 / me=umh / subme=10 / psy=1 / psy_rd=1.05:0.10 / mixed_ref=1 / me_range=32 / chroma_me=1 / trellis=2 / 8x8dct=1 / cqm=0 / deadzone=21,11 / fast_pskip=0 / chroma_qp_offset=-3 / threads=8 / lookahead_threads=1 / sliced_threads=0 / nr=0 / decimate=0 / interlaced=0 / bluray_compat=0 / constrained_intra=0 / bframes=9 / b_pyramid=2 / b_adapt=2 / b_bias=0 / direct=3 / weightb=1 / open_gop=0 / weightp=2 / keyint=250 / keyint_min=25 / scenecut=40 / intra_refresh=0 / rc_lookahead=60 / rc=2pass / mbtree=0 / bitrate=1937 / ratetol=1.0 / qcomp=0.60 / qpmin=0 / qpmax=60 / qpstep=4 / cplxblur=20.0 / qblur=0.5 / vbv_maxrate=50000 / vbv_bufsize=62500 / nal_hrd=none / ip_ratio=1.40 / pb_ratio=1.30 / aq=1:1.00
Default : Нет
Forced : Нет
Коэффициенты матрицы : BT.601

Аудио #1
Идентификатор : 2
Формат : AC-3
Формат/Информация : Audio Coding 3
Расширение режима : CM (complete main)
Параметр Endianness формата : Big
Идентификатор кодека : A_AC3
Продолжительность : 1 ч. 39 м.
Вид битрейта : Постоянный
Битрейт : 448 Кбит/сек
Каналы : 6 каналов
Расположение каналов : Front: L C R, Side: L R, LFE
Частота : 48,0 КГц
Битовая глубина : 16 бит
Метод сжатия : С потерями
Размер потока : 318 Мбайт (16%)
Язык : English
Default : Нет
Forced : Нет

Аудио #2
Идентификатор : 3
Формат : AC-3
Формат/Информация : Audio Coding 3
Расширение режима : CM (complete main)
Параметр Endianness формата : Big
Идентификатор кодека : A_AC3
Продолжительность : 1 ч. 39 м.
Вид битрейта : Постоянный
Битрейт : 448 Кбит/сек
Каналы : 6 каналов
Расположение каналов : Front: L C R, Side: L R, LFE
Частота : 48,0 КГц
Битовая глубина : 16 бит
Метод сжатия : С потерями
Размер потока : 318 Мбайт (16%)
Язык : Russian
Default : Да
Forced : Нет

Текст
Идентификатор : 4
Формат : UTF-8
Идентификатор кодека : S_TEXT/UTF8
Идентификатор кодека/Информация : UTF-8 Plain Text
Язык : Russian
Default : Нет
Forced : Нет

Меню
00:00:00.000 : en:Chapter 01
00:04:32.640 : en:Chapter 02
00:08:16.000 : en:Chapter 03
00:12:26.080 : en:Chapter 04
00:16:42.280 : en:Chapter 05
00:24:26.840 : en:Chapter 06
00:30:09.240 : en:Chapter 07
00:34:02.200 : en:Chapter 08
00:36:54.960 : en:Chapter 09
00:39:35.080 : en:Chapter 10
00:43:36.120 : en:Chapter 11
00:48:03.240 : en:Chapter 12
00:52:35.880 : en:Chapter 13
00:55:35.920 : en:Chapter 14
01:00:18.840 : en:Chapter 15
01:03:37.520 : en:Chapter 16
01:08:54.320 : en:Chapter 17
01:12:13.440 : en:Chapter 18
01:16:04.080 : en:Chapter 19
01:20:40.920 : en:Chapter 20
01:25:28.360 : en:Chapter 21
01:29:40.720 : en:Chapter 22
01:31:09.360 : en:Chapter 23
01:34:58.920 : en:Chapter 24


Исходник немецкий R2. DVD R5 и соотв. рип с него, имеющиеся в сети, имеют баг. Субтитры изготовлены заново (на основе хорошего перевода и оригинальной дорожки), поскольку "сетевые" не устроили. Таймированы по речи.




В очередной раз издатель "отличился" с переводом названия, однако, согласно правилам, оставляем как есть.

Релиз от: Temperest
загрузка...
Правила, инструкции, FAQ!!!
Торрент  Добавлен [19 янв 2014, 07:17] Скачать торрент
Скачать торрент
[ Размер 20.22 КБ / Просмотров 5 ]

Статус  
 
Размер  1.97 ГБ
Приватный: Нет (DHT включён)
.torrent скачан  0
Как залить торрент? | Как скачать Torrent? | Как смотреть и слушать онлайн?  


     Отправить личное сообщение
   
Страница 1 из 1
Показать сообщения за:  Поле сортировки  
Начать новую тему Ответить на тему

   Похожие торренты   Автор   Ответы   Просмотры   Последнее сообщение 
В этой теме нет новых непрочитанных сообщений. Скачать торрент Проверен Психологический практикум - Михайлов С. - Лучше, чем скорочтение. Как научиться читать быстрее [2007, DjVu, RUS]

в форуме Популярная психология, Размер: 11.25 МБ, Здоровье: 100%

Anonymous

0
3|1

12
3

09 сен 2016, 22:02

Anonymous Перейти к последнему сообщению

В этой теме нет новых непрочитанных сообщений. Скачать торрент Проверен (progressive metal) Miscellane - Painted Palm - 2002, MP3, 320 kbps

в форуме Heavy, Power, Progressive (Metal), Размер: 135.97 МБ, Здоровье: 0%

Anonymous

0
0|0

0
0

08 окт 2016, 18:26

Anonymous Перейти к последнему сообщению

В этой теме нет новых непрочитанных сообщений. Скачать торрент Проверен Всемирная история: Вавилон (для самых маленьких) реж. Роберт Саакянц (2007) DVDRip / 4+ [2007 г., Обучающий мультфильм для детей, DVDRip]

в форуме Обучающие издания для детей, Размер: 2.87 ГБ, Здоровье: 100%

Anonymous

0
3|1

74
0

20 сен 2014, 00:06

Anonymous Перейти к последнему сообщению

В этой теме нет новых непрочитанных сообщений. Скачать торрент Проверен Спец Выпуск Идеи вашего дома:Кухни [2007 г., DVDRip] [2007 г., обучение, DVDRip]

в форуме Строительство, ремонт и дизайн, Размер: 215.02 МБ, Здоровье: 100%

Гость

0
82|3

48
2

18 янв 2016, 19:45

Гость Перейти к последнему сообщению

В этой теме нет новых непрочитанных сообщений. Скачать торрент Проверен (Symphonic Prog) Hands - Palm Mystery - 1998, FLAC (tracks+.cue), lossless

в форуме Progressive & Art-Rock, Размер: 420.25 МБ, Здоровье: 0%

Anonymous

0
0|0

0
0

30 авг 2016, 19:03

Anonymous Перейти к последнему сообщению



Сейчас этот форум просматривают: нет зарегистрированных пользователей и гости: 1


Вы не можете начинать темы
Вы не можете отвечать на сообщения
Вы не можете редактировать свои сообщения
Вы не можете удалять свои сообщения
Вы не можете добавлять вложения

Перейти:  

!ВНИМАНИЕ!
 Ресурс не предоставляет электронные версии произведений, а занимается лишь коллекционированием и каталогизацией ссылок, присылаемых и публикуемых на форуме нашими читателями. Если вы являетесь правообладателем какого-либо представленного материала и не желаете чтобы ссылка на него находилась в нашем каталоге, свяжитесь с нами и мы незамедлительно удалим её. Файлы для обмена на трекере предоставлены пользователями сайта, и администрация не несёт ответственности за их содержание. Просьба не заливать файлы, защищенные авторскими правами, а также файлы нелегального содержания!