На всех торрентах на трекере установлена скидка на скачивание в размере 100 процентов(а).
 Возможность скачивания торрента НЕ зависит от ограничений при низком ратио, низком аплоаде, требуемом ратио или требуемом аплоаде.


Начать новую тему Ответить на тему
Статистика раздачи
Размер: 4.37 ГБ | Добавлен: 18 янв 2014, 08:08 | Скачали: 1
Сидеров: 110  [0 байт/сек]    Личеров: 2  [0 байт/сек]
Пред. тема | След. тема 

Автор
Сообщение

СообщениеДобавлено: 18 янв 2014, 08:08 

Страна: Германия (ФРГ), Югославия
Жанр: фэнтези, приключения
Год выпуска: 1967
Продолжительность: 01:29:19
Перевод: Профессиональный (одноголосый) + Оригинальный


Режиссер: Харальд Райнль / Harald Reinl


В ролях: Карин Дор (Brunhilde), Херберт Лом (Etzel), Рольф Хеннигер (KГ¶nig Gunther), Зигфрид Вишневски (Hagen), Мария Марлоу (Kriemhild), Теренс Хилл (Giselher), Фред Уильямс (Gernot), Ганс фон Борсоди (Volker von Alzey), Скип Мартин (Alberich), Хильде Вайсснер (KГ¶nigin Ute), Дитер Эпплер (RГјdiger von Bechlarn), Кристиан Роде (Dietrich von Bern)


Описание: Вдова Зигфрида - прекрасная Кримхильда - не пожелала оставить смерть возлюбленного неотомщенной. Ее новый избранник, повелитель свирепых гуннов Аттила, готов уничтожить врагов своей несравненной и коварной супруги. Сколько доблестных витязей не вернется с этой страшной битвы!... И спустя еще многие века менестрели будут слагать песни о проклятии Нибелунгов, подвигах Зигфрида и мести Кримхильды!...






Семпл


Качество: BDRip
Контейнер: MKV

Видео: AVC, 1280x544 (2.35:1), 6623 kbps, 24 fps, 0,396 bpp
Аудио №1: русский / AC3 / 2.0 / 48 kHz / 192 kbps
Аудио №2: немецкий / AC3 / 2.0 / 48 kHz / 192 kbps
Навигация по главам: есть


------------------------------------------------------------------------
x264 [info]: frame I:1202 Avg QP:17.11 size:145986
x264 [info]: frame P:71569 Avg QP:19.57 size: 49289
x264 [info]: frame B:55858 Avg QP:21.54 size: 13142
------------------------------------------------------------------------
Format : Matroska
Format version : Version 2
File size : 4.37 GiB
Duration : 1h 29mn
Overall bit rate : 7 009 Kbps
Movie name : = Нибелунги. Часть 2. Месть Кримгильды / Die Nibelungen: Kriemhilds Rache BDRip by SC Kosmos =
Encoded date : UTC 2014-01-16 10:23:52
Writing application : mkvmerge v3.3.0 ('Language') gebaut am Mar 24 2010 14:59:24
Writing library : libebml v0.8.0 + libmatroska v0.9.0

Video
ID : 1
Format : AVC
Format/Info : Advanced Video Codec
Format profile : High@L4.1
Format settings, CABAC : Yes
Format settings, ReFrames : 9 frames
Codec ID : V_MPEG4/ISO/AVC
Duration : 1h 29mn
Bit rate : 6 623 Kbps
Width : 1 280 pixels
Height : 544 pixels
Display aspect ratio : 2.35:1
Frame rate : 24.000 fps
Color space : YUV
Chroma subsampling : 4:2:0
Bit depth : 8 bits
Scan type : Progressive
Bits/(Pixel*Frame) : 0.396
Stream size : 4.05 GiB (93%)
Title : Нибелунги. Часть 2. Месть Кримгильды / Die Nibelungen: Kriemhilds Rache BDRip by SC Kosmos
Writing library : x264 core 138 r2358 9e941d1
Encoding settings : cabac=1 / ref=9 / deblock=1:-2:-2 / analyse=0x3:0x113 / me=umh / subme=11 / psy=1 / psy_rd=1.00:0.00 / mixed_ref=1 / me_range=32 / chroma_me=1 / trellis=2 / 8x8dct=1 / cqm=0 / deadzone=21,11 / fast_pskip=0 / chroma_qp_offset=-2 / threads=12 / lookahead_threads=1 / sliced_threads=0 / nr=0 / decimate=1 / interlaced=0 / bluray_compat=0 / constrained_intra=0 / bframes=10 / b_pyramid=2 / b_adapt=1 / b_bias=0 / direct=1 / weightb=1 / open_gop=0 / weightp=2 / keyint=240 / keyint_min=24 / scenecut=40 / intra_refresh=0 / rc_lookahead=40 / rc=2pass / mbtree=0 / bitrate=6623 / ratetol=1.0 / qcomp=0.60 / qpmin=0 / qpmax=69 / qpstep=4 / cplxblur=20.0 / qblur=0.5 / vbv_maxrate=50000 / vbv_bufsize=50000 / nal_hrd=none / ip_ratio=1.40 / pb_ratio=1.30 / aq=1:1.00
Language : German
Default : No
Forced : No

Audio #1
ID : 2
Format : AC-3
Format/Info : Audio Coding 3
Mode extension : CM (complete main)
Codec ID : A_AC3
Duration : 1h 29mn
Bit rate mode : Constant
Bit rate : 192 Kbps
Channel(s) : 2 channels
Channel positions : Front: L R
Sampling rate : 48.0 KHz
Bit depth : 16 bits
Compression mode : Lossy
Stream size : 123 MiB (3%)
Title : VO
Language : Russian
Default : Yes
Forced : No

Audio #2
ID : 3
Format : AC-3
Format/Info : Audio Coding 3
Mode extension : CM (complete main)
Codec ID : A_AC3
Duration : 1h 29mn
Bit rate mode : Constant
Bit rate : 192 Kbps
Channel(s) : 2 channels
Channel positions : Front: L R
Sampling rate : 48.0 KHz
Bit depth : 16 bits
Compression mode : Lossy
Stream size : 123 MiB (3%)
Language : German
Default : No
Forced : No

Menu
00:00:00.000 : en:00:00:00.000
00:08:57.083 : en:00:08:57.083
00:19:31.958 : en:00:19:31.958
00:29:52.833 : en:00:29:52.833
00:39:44.333 : en:00:39:44.333
00:50:07.875 : en:00:50:07.875
01:00:08.625 : en:01:00:08.625
01:10:02.125 : en:01:10:02.125
01:21:10.625 : en:01:21:10.625




загрузка...
Правила, инструкции, FAQ!!!
Торрент  Добавлен [18 янв 2014, 08:08] Скачать торрент
Скачать торрент
[ Размер 22.28 КБ / Просмотров 14 ]

Статус  
 
Размер  4.37 ГБ
Приватный: Нет (DHT включён)
.torrent скачан  1
Как залить торрент? | Как скачать Torrent? | Как смотреть и слушать онлайн?  


     Отправить личное сообщение
   
Страница 1 из 1
Показать сообщения за:  Поле сортировки  
Начать новую тему Ответить на тему

   Похожие торренты   Автор   Ответы   Просмотры   Последнее сообщение 
В этой теме нет новых непрочитанных сообщений. Скачать торрент Нибелунги: Зигфрид / Die Nibelungen, Teil 1 - Siegfried (1966) BDRip 720p

в форуме 720p | 1080p, Размер: 4.37 ГБ, Здоровье: 100%

Anonymous

0
108|2

60
1

18 янв 2014, 08:06

Anonymous Перейти к последнему сообщению

В этой теме нет новых непрочитанных сообщений. Скачать торрент Месть / Haevnen (2010) BDRip 720p | P, A

в форуме 720p | 1080p, Размер: 4.04 ГБ, Здоровье: 0%

Anonymous

0
0|0

22
0

07 янв 2014, 10:02

Anonymous Перейти к последнему сообщению

В этой теме нет новых непрочитанных сообщений. Скачать торрент Проверен Месть от кутюр / The Dressmaker (2015) BDRip 720p | P

в форуме 720p | 1080p, Размер: 6.26 ГБ, Здоровье: 100%

Гость

0
111|58

88
118

21 июл 2016, 23:38

Гость Перейти к последнему сообщению

В этой теме нет новых непрочитанных сообщений. Скачать торрент Проверен Кровавая месть / In the Blood (2014) BDRip 720p | Чистый звук

в форуме 720p | 1080p, Размер: 4.64 ГБ, Здоровье: 0%

Anonymous

0
0|0

49
0

03 июл 2014, 08:54

Anonymous Перейти к последнему сообщению

В этой теме нет новых непрочитанных сообщений. Скачать торрент Проверен Юные соблазнительницы 3 / Blutjunge Verführerinnen 3. Teil (1972) BDRip | A

в форуме Комедии, Размер: 1.46 ГБ, Здоровье: 100%

Anonymous

0
221|13

234
233

16 ноя 2015, 00:03

Anonymous Перейти к последнему сообщению



Сейчас этот форум просматривают: нет зарегистрированных пользователей и гости: 2


Вы не можете начинать темы
Вы не можете отвечать на сообщения
Вы не можете редактировать свои сообщения
Вы не можете удалять свои сообщения
Вы не можете добавлять вложения

Перейти:  

!ВНИМАНИЕ!
 Ресурс не предоставляет электронные версии произведений, а занимается лишь коллекционированием и каталогизацией ссылок, присылаемых и публикуемых на форуме нашими читателями. Если вы являетесь правообладателем какого-либо представленного материала и не желаете чтобы ссылка на него находилась в нашем каталоге, свяжитесь с нами и мы незамедлительно удалим её. Файлы для обмена на трекере предоставлены пользователями сайта, и администрация не несёт ответственности за их содержание. Просьба не заливать файлы, защищенные авторскими правами, а также файлы нелегального содержания!