На всех торрентах на трекере установлена скидка на скачивание в размере 100 процентов(а).
 Возможность скачивания торрента НЕ зависит от ограничений при низком ратио, низком аплоаде, требуемом ратио или требуемом аплоаде.


Начать новую тему Ответить на тему
Статистика раздачи
Размер: 2.18 ГБ | Добавлен: 17 янв 2014, 12:54 | Скачали: 0
Сидеров: 0  [0 байт/сек]    Личеров: 0  [0 байт/сек]
Пред. тема | След. тема 

Автор
Сообщение

СообщениеДобавлено: 17 янв 2014, 12:54 

Название: Жанна Д'Арк
Оригинальное название: Joan of Arc
Год выхода: 1999
Жанр: драма, биография, военный, история
Режиссер: Люк Бессон

В ролях: Милла Йовович, Дастин Хоффман, Фэй Данауэй, Джон Малкович, Чеки Карио, Венсан Кассель, Паскаль Греггори, Дэвид Бегг, Кристиан Бергнер, Эндрю Биркин, Доминик Боррелли, Джон Босуолл, Мэтью Боуйер, Пол Брук, Брюс Байрон, Кристиан Барбье, Чарльз Корк, Патрис Коссоно, Тони Д'Амарио, Даниэль Дожон...

О фильме: Реалистичная и пугающая обстановка батальных сцен, потрясающая глубина визуальных образов и волнующая музыка переносят зрителя на пятьсот лет назад, туда, где звуки молитв заглушаются звоном мечей и где беспросветные ночи озаряются пламенем костров, пожирающих невинных жертв.



Страна: Франция
Продолжительность: 02:38:00
Перевод: Дублированный, Оригинал (Английский)


Кодек: x.264
Качество: BDRip-AVC
Видео: 1024x432 (2,40:1), 23,976 fps, 1401 kbps, 0.132 bit/pixel
Аудио #1: 48 kHz, AC3 Dolby Digital, 6 ch, ~384.00 kbps (Дубляж)
Аудио #2: 48 kHz, AC3 Dolby Digital, 2 ch, ~192.00 kbps (Оригинал)
Субтитры: Русские, Английские (отключаемые)

&

Общее
Уникальный идентификатор : 218421986148016766536179877645021361182 (0xA4528B5B68056F4686A701572AA8341E)
Полное имя : D:Joan of Arc.1999.BDRip-AVC.mkv
Формат : Matroska
Версия формата : Version 4 / Version 2
Размер файла : 2,18 Гбайт
Продолжительность : 2 ч. 38 м.
Общий поток : 1978 Кбит/сек
Название фильма : Жанна Д'Арк / Joan of Arc (1999) BDRip-AVC rip by Rulya74
Дата кодирования : UTC 2013-08-26 05:44:05
Программа кодирования : mkvmerge v6.2.0 ('Promised Land') built on Apr 28 2013 12:22:01
Библиотека кодирования : libebml v1.3.0 + libmatroska v1.4.0

Видео
Идентификатор : 1
Формат : AVC
Формат/Информация : Advanced Video Codec
Профиль формата : High@L4.1
Параметр CABAC формата : Да
Параметр ReFrames формата : 8 кадров
Идентификатор кодека : V_MPEG4/ISO/AVC
Продолжительность : 2 ч. 38 м.
Битрейт : 1401 Кбит/сек
Ширина : 1024 пикселя
Высота : 432 пикселя
Соотношение сторон : 2,40:1
Режим частоты кадров : Постоянный
Частота кадров : 23,976 кадра/сек
Цветовое пространство : YUV
Субдискретизация насыщенности : 4:2:0
Битовая глубина : 8 бит
Тип развёртки : Прогрессивная
Бит/(Пиксели*Кадры) : 0.132
Размер потока : 1,50 Гбайт (69%)
Библиотека кодирования : x264 core 130 r2273 b3065e6
Настройки программы : cabac=1 / ref=8 / deblock=1:-1:-1 / analyse=0x3:0x133 / me=umh / subme=9 / psy=1 / psy_rd=1.00:0.10 / mixed_ref=1 / me_range=32 / chroma_me=1 / trellis=2 / 8x8dct=1 / cqm=0 / deadzone=21,11 / fast_pskip=0 / chroma_qp_offset=-3 / threads=3 / lookahead_threads=1 / sliced_threads=0 / nr=0 / decimate=1 / interlaced=0 / bluray_compat=0 / constrained_intra=0 / bframes=6 / b_pyramid=2 / b_adapt=2 / b_bias=0 / direct=3 / weightb=1 / open_gop=0 / weightp=2 / keyint=250 / keyint_min=23 / scenecut=40 / intra_refresh=0 / rc_lookahead=50 / rc=2pass / mbtree=1 / bitrate=1401 / ratetol=1.0 / qcomp=0.60 / qpmin=0 / qpmax=69 / qpstep=4 / cplxblur=20.0 / qblur=0.5 / ip_ratio=1.40 / aq=1:1.00
Default : Да
Forced : Нет

Аудио #1
Идентификатор : 2
Формат : AC-3
Формат/Информация : Audio Coding 3
Расширение режима : CM (complete main)
Параметр Endianness формата : Big
Идентификатор кодека : A_AC3
Продолжительность : 2 ч. 38 м.
Вид битрейта : Постоянный
Битрейт : 384 Кбит/сек
Каналы : 6 каналов
Расположение каналов : Front: L C R, Side: L R, LFE
Частота : 48,0 КГц
Битовая глубина : 16 бит
Метод сжатия : С потерями
Размер потока : 434 Мбайт (19%)
Заголовок : Дублированный
Язык : Russian
Default : Да
Forced : Нет

Аудио #2
Идентификатор : 3
Формат : AC-3
Формат/Информация : Audio Coding 3
Расширение режима : CM (complete main)
Параметр Endianness формата : Big
Идентификатор кодека : A_AC3
Продолжительность : 2 ч. 38 м.
Вид битрейта : Постоянный
Битрейт : 192 Кбит/сек
Каналы : 2 канала
Расположение каналов : Front: L R
Частота : 48,0 КГц
Битовая глубина : 16 бит
Метод сжатия : С потерями
Размер потока : 217 Мбайт (10%)
Заголовок : Оригинал
Язык : English
Default : Нет
Forced : Нет

Текст #1
Идентификатор : 4
Формат : UTF-8
Идентификатор кодека : S_TEXT/UTF8
Идентификатор кодека/Информация : UTF-8 Plain Text
Язык : Russian
Default : Да
Forced : Нет

Текст #2
Идентификатор : 5
Формат : UTF-8
Идентификатор кодека : S_TEXT/UTF8
Идентификатор кодека/Информация : UTF-8 Plain Text
Язык : English
Default : Нет
Forced : Нет

загрузка...
Правила, инструкции, FAQ!!!
Торрент  Добавлен [17 янв 2014, 12:54] Скачать торрент
Скачать торрент
[ Размер 11.32 КБ / Просмотров 12 ]

Статус  
 
Размер  2.18 ГБ
Приватный: Нет (DHT включён)
.torrent скачан  0
Как залить торрент? | Как скачать Torrent? | Как смотреть и слушать онлайн?  


     Отправить личное сообщение
   
Страница 1 из 1
Показать сообщения за:  Поле сортировки  
Начать новую тему Ответить на тему

   Похожие торренты   Автор   Ответы   Просмотры   Последнее сообщение 
В этой теме нет новых непрочитанных сообщений. Скачать торрент Жанна Д'Арк / The Messenger: The Story of Joan of Arc (1999) BDRip 1080p

в форуме 720p | 1080p, Размер: 15.52 ГБ, Здоровье: 0%

Anonymous

0
0|0

37
0

17 янв 2014, 12:48

Anonymous Перейти к последнему сообщению

В этой теме нет новых непрочитанных сообщений. Скачать торрент Проверен Жанна Фриске - Жанна (+ новый трек «Мама Мария») (2006) [FLAC|Lossless]<Pop>

в форуме Отечественная музыка, Размер: 382.12 МБ, Здоровье: 50%

Anonymous

0
1|2

93
0

21 дек 2014, 01:59

Anonymous Перейти к последнему сообщению

В этой теме нет новых непрочитанных сообщений. Скачать торрент Проверен (Pop) Жанна Фриске - Жанна - 2006, MP3, 320 kbps

в форуме Отечественная музыка, Размер: 124.38 МБ, Здоровье: 100%

Anonymous

0
11|4

5
0

30 июл 2016, 15:05

Anonymous Перейти к последнему сообщению

В этой теме нет новых непрочитанных сообщений. Скачать торрент Проверен (Electronic, Rock & Roll) Павел Кузин - Браво Жанна - 1999, MP3, 320 kbps

в форуме Русский Рок, Размер: 107.4 МБ, Здоровье: 0%

Anonymous

0
0|0

1
0

23 авг 2016, 02:01

Anonymous Перейти к последнему сообщению

В этой теме нет новых непрочитанных сообщений. Скачать торрент Проверен (Шансон, Pop) Жанна Волкова - Дискография (2 альбома + неизданное) 1995-1999, MP3, 128-320 kbps

в форуме Шансон|Авторская песня, Размер: 296.66 МБ, Здоровье: 0%

Anonymous

0
0|0

3
0

05 ноя 2016, 18:59

Anonymous Перейти к последнему сообщению



Сейчас этот форум просматривают: нет зарегистрированных пользователей и гости: 1


Вы не можете начинать темы
Вы не можете отвечать на сообщения
Вы не можете редактировать свои сообщения
Вы не можете удалять свои сообщения
Вы не можете добавлять вложения

Перейти:  

!ВНИМАНИЕ!
 Ресурс не предоставляет электронные версии произведений, а занимается лишь коллекционированием и каталогизацией ссылок, присылаемых и публикуемых на форуме нашими читателями. Если вы являетесь правообладателем какого-либо представленного материала и не желаете чтобы ссылка на него находилась в нашем каталоге, свяжитесь с нами и мы незамедлительно удалим её. Файлы для обмена на трекере предоставлены пользователями сайта, и администрация не несёт ответственности за их содержание. Просьба не заливать файлы, защищенные авторскими правами, а также файлы нелегального содержания!