На всех торрентах на трекере установлена скидка на скачивание в размере 100 процентов(а).
 Возможность скачивания торрента НЕ зависит от ограничений при низком ратио, низком аплоаде, требуемом ратио или требуемом аплоаде.


Начать новую тему Ответить на тему
Статистика раздачи
Размер: 15.52 ГБ | Добавлен: 17 янв 2014, 12:48 | Скачали: 0
Сидеров: 0  [0 байт/сек]    Личеров: 0  [0 байт/сек]
Пред. тема | След. тема 

Автор
Сообщение

СообщениеДобавлено: 17 янв 2014, 12:48 

Информация о фильме
Название: Жанна Д'Арк
Оригинальное название: The Messenger: The Story of Joan of Arc
Год выхода: 1999
Жанр: Драма, приключения, военный, биография, история
Режиссер: Люк Бессон

В ролях: Милла Йовович, Джон Малкович, Фэй Данауэй, Дастин Хоффман, Паскаль Греггори, Венсан Кассель, Чеки Карио, Ричард Райдингс, Десмонд Хэррингтон, Тимоти Уэст

О фильме:
Реалистичная и пугающая обстановка батальных сцен, потрясающая глубина визуальных образов и волнующая музыка переносят зрителя на пятьсот лет назад, туда, где звуки молитв заглушаются звоном мечей и где беспросветные ночи озаряются пламенем костров, пожирающих невинных жертв.



Страна: Франция
Студия: Duran Duboi
Продолжительность: 02:38:00
Перевод: Дублированный |Blu-ray CEE| + Профессиональный (многоголосый, закадровый) Супербит С.Р.И. + Авторский (одноголосый, закадровый) Юрий Живов + Оригинал


Кодек: x264
Качество: BDRip 1080p (источник: Blu-ray Remux / 1080p)
Видео: 1920х800 (2.40:1), 11500 Kbps, 23.976 fps, 0.312 bit/pixel
Аудио #1: 48.0 kHz, AC3 Dolby Digital, 3/2 (L,C,R,l,r) + LFE ch, 640 kbps [Дубляж, Blu-ray CEE]
Аудио #2: 48.0 kHz, AC3 Dolby Digital, 3/2 (L,C,R,l,r) + LFE ch, 640 kbps [Многоголосый, Супербит С.Р.И.]
Аудио #3: 48.0 kHz, AC3 Dolby Digital, 3/2 (L,C,R,l,r) + LFE ch, 640 kbps [Авторский, Ю. Живов]
Аудио #4: 48.0 kHz, AC3 Dolby Digital, 3/2 (L,C,R,l,r) + LFE ch, 640 kbps [Оригинал, Английский]
Субтитры: Русские, английские

Семпл



x264 [info]: frame I:1649 Avg QP:16.99 size:181571
x264 [info]: frame P:44616 Avg QP:19.76 size: 97096
x264 [info]: frame B:181039 Avg QP:21.47 size: 49681
General
Unique ID : 209164479250858309478891476094166521006 (0x9D5B9D0712140609B87F73BEFC6454AE)
Complete name : E:Joan.of.Arc.1999.x264.BDRip.1080p.mkv
Format : Matroska
Format version : Version 2
File size : 15.5 GiB
Duration : 2h 38mn
Overall bit rate : 14.1 Mbps
Encoded date : UTC 2014-01-16 23:57:14
Writing application : mkvmerge v5.8.0 ('No Sleep / Pillow') built on Sep 2 2012 15:37:04
Writing library : libebml v1.2.3 + libmatroska v1.3.0

Video
ID : 1
Format : AVC
Format/Info : Advanced Video Codec
Format profile : High@L4.1
Format settings, CABAC : Yes
Format settings, ReFrames : 5 frames
Codec ID : V_MPEG4/ISO/AVC
Duration : 2h 38mn
Bit rate : 11.5 Mbps
Width : 1 920 pixels
Height : 800 pixels
Display aspect ratio : 2.40:1
Frame rate mode : Constant
Frame rate : 23.976 fps
Color space : YUV
Chroma subsampling : 4:2:0
Bit depth : 8 bits
Scan type : Progressive
Bits/(Pixel*Frame) : 0.312
Stream size : 12.4 GiB (80%)
Writing library : x264 core 140 r2377 1ca7bb9
Encoding settings : cabac=1 / ref=5 / deblock=1:-3:-3 / analyse=0x3:0x133 / me=tesa / subme=11 / psy=1 / psy_rd=1.00:0.00 / mixed_ref=1 / me_range=32 / chroma_me=1 / trellis=2 / 8x8dct=1 / cqm=0 / deadzone=21,11 / fast_pskip=0 / chroma_qp_offset=-2 / threads=12 / lookahead_threads=3 / sliced_threads=0 / nr=0 / decimate=0 / interlaced=0 / bluray_compat=0 / constrained_intra=0 / bframes=10 / b_pyramid=2 / b_adapt=2 / b_bias=0 / direct=3 / weightb=0 / open_gop=0 / weightp=2 / keyint=240 / keyint_min=23 / scenecut=40 / intra_refresh=0 / rc=2pass / mbtree=0 / bitrate=11500 / ratetol=1.0 / qcomp=0.60 / qpmin=0 / qpmax=69 / qpstep=4 / cplxblur=20.0 / qblur=0.5 / ip_ratio=1.40 / pb_ratio=1.30 / aq=1:1.00
Language : English
Default : Yes
Forced : No

Audio #1
ID : 2
Format : AC-3
Format/Info : Audio Coding 3
Mode extension : CM (complete main)
Format settings, Endianness : Big
Codec ID : A_AC3
Duration : 2h 38mn
Bit rate mode : Constant
Bit rate : 640 Kbps
Channel count : 6 channels
Channel positions : Front: L C R, Side: L R, LFE
Sampling rate : 48.0 KHz
Bit depth : 16 bits
Compression mode : Lossy
Stream size : 723 MiB (5%)
Title : Дубляж, Blu-ray CEE
Language : Russian
Default : Yes
Forced : No

Audio #2
ID : 3
Format : AC-3
Format/Info : Audio Coding 3
Mode extension : CM (complete main)
Format settings, Endianness : Big
Codec ID : A_AC3
Duration : 2h 38mn
Bit rate mode : Constant
Bit rate : 640 Kbps
Channel count : 6 channels
Channel positions : Front: L C R, Side: L R, LFE
Sampling rate : 48.0 KHz
Bit depth : 16 bits
Compression mode : Lossy
Stream size : 723 MiB (5%)
Title : Многоголосый, Супербит С.Р.И.
Language : Russian
Default : No
Forced : No

Audio #3
ID : 4
Format : AC-3
Format/Info : Audio Coding 3
Mode extension : CM (complete main)
Format settings, Endianness : Big
Codec ID : A_AC3
Duration : 2h 38mn
Bit rate mode : Constant
Bit rate : 640 Kbps
Channel count : 6 channels
Channel positions : Front: L C R, Side: L R, LFE
Sampling rate : 48.0 KHz
Bit depth : 16 bits
Compression mode : Lossy
Stream size : 723 MiB (5%)
Title : Авторский, Ю. Живов
Language : Russian
Default : No
Forced : No

Audio #4
ID : 5
Format : AC-3
Format/Info : Audio Coding 3
Mode extension : CM (complete main)
Format settings, Endianness : Big
Codec ID : A_AC3
Duration : 2h 38mn
Bit rate mode : Constant
Bit rate : 640 Kbps
Channel count : 6 channels
Channel positions : Front: L C R, Side: L R, LFE
Sampling rate : 48.0 KHz
Bit depth : 16 bits
Compression mode : Lossy
Stream size : 723 MiB (5%)
Title : Оригинал, Английский
Language : English
Default : No
Forced : No

Text #1
ID : 6
Format : UTF-8
Codec ID : S_TEXT/UTF8
Codec ID/Info : UTF-8 Plain Text
Language : Russian
Default : No
Forced : No

Text #2
ID : 7
Format : UTF-8
Codec ID : S_TEXT/UTF8
Codec ID/Info : UTF-8 Plain Text
Language : English
Default : No
Forced : No

Menu
00:00:00.000 : en:Start
00:10:59.075 : en:"I Need to Confess."
00:21:01.551 : en:Booty
00:32:20.855 : en:"Learn to Forgive."
00:38:35.271 : en:Message From X
00:46:58.649 : en:Finding the Dauphin
00:56:49.155 : en:Chosen By God
01:03:12.246 : en:Intact
01:12:24.548 : en:Dunois
01:23:08.692 : en:Campaign Discussion
01:37:11.784 : en:Letter to the English
01:46:42.479 : en:A Great Victory
01:56:54.007 : en:"Follow Me!"
02:03:27.358 : en:Badly Wounded
02:12:21.725 : en:Back From the Dead
02:21:01.494 : en:Taking the Tourelles
загрузка...
Правила, инструкции, FAQ!!!
Торрент  Добавлен [17 янв 2014, 12:48] Скачать торрент
Скачать торрент
[ Размер 39.33 КБ / Просмотров 8 ]

Статус  
 
Размер  15.52 ГБ
Приватный: Нет (DHT включён)
.torrent скачан  0
Как залить торрент? | Как скачать Torrent? | Как смотреть и слушать онлайн?  


     Отправить личное сообщение
   
Страница 1 из 1
Показать сообщения за:  Поле сортировки  
Начать новую тему Ответить на тему

   Похожие торренты   Автор   Ответы   Просмотры   Последнее сообщение 
В этой теме нет новых непрочитанных сообщений. Скачать торрент Жанна Д'Арк / Joan of Arc (1999) BDRip-AVC

в форуме 720p | 1080p, Размер: 2.18 ГБ, Здоровье: 0%

Anonymous

0
0|0

30
0

17 янв 2014, 12:54

Anonymous Перейти к последнему сообщению

В этой теме нет новых непрочитанных сообщений. Убить гонца / Kill the Messenger (2014) BDRip 1080p | L2

в форуме Новинки кино, Размер: 11.29 ГБ, Здоровье: 39%

Гость

0
119|299

4642
98

29 янв 2015, 20:12

Гость Перейти к последнему сообщению

В этой теме нет новых непрочитанных сообщений. Скачать торрент Проверен Жанна Фриске - Жанна (+ новый трек «Мама Мария») (2006) [FLAC|Lossless]<Pop>

в форуме Отечественная музыка, Размер: 382.12 МБ, Здоровье: 50%

Anonymous

0
1|2

93
0

21 дек 2014, 01:59

Anonymous Перейти к последнему сообщению

В этой теме нет новых непрочитанных сообщений. Скачать торрент Проверен История игрушек 3Д / Toy Story 3D (Джон Лассетер, Ли Анкрич / John Lasseter, Lee Unkrich) [1995, 1999, 2010, анимация, семейный, приключения, комедия, Blu-Ray, 1080p] Трилогия BD3D + 2D

в форуме 3D Мультфильмы, Размер: 116.89 ГБ, Здоровье: 0%

Anonymous

0
0|0

7
0

07 сен 2016, 18:10

Anonymous Перейти к последнему сообщению

В этой теме нет новых непрочитанных сообщений. Скачать торрент Проверен (Pop) Жанна Фриске - Жанна - 2006, MP3, 320 kbps

в форуме Отечественная музыка, Размер: 124.38 МБ, Здоровье: 100%

Anonymous

0
11|4

5
0

30 июл 2016, 15:05

Anonymous Перейти к последнему сообщению



Сейчас этот форум просматривают: нет зарегистрированных пользователей и гости: 1


Вы не можете начинать темы
Вы не можете отвечать на сообщения
Вы не можете редактировать свои сообщения
Вы не можете удалять свои сообщения
Вы не можете добавлять вложения

Перейти:  

!ВНИМАНИЕ!
 Ресурс не предоставляет электронные версии произведений, а занимается лишь коллекционированием и каталогизацией ссылок, присылаемых и публикуемых на форуме нашими читателями. Если вы являетесь правообладателем какого-либо представленного материала и не желаете чтобы ссылка на него находилась в нашем каталоге, свяжитесь с нами и мы незамедлительно удалим её. Файлы для обмена на трекере предоставлены пользователями сайта, и администрация не несёт ответственности за их содержание. Просьба не заливать файлы, защищенные авторскими правами, а также файлы нелегального содержания!