На всех торрентах на трекере установлена скидка на скачивание в размере 100 процентов(а).
 Возможность скачивания торрента НЕ зависит от ограничений при низком ратио, низком аплоаде, требуемом ратио или требуемом аплоаде.


Начать новую тему Ответить на тему
Статистика раздачи
Размер: 7.76 ГБ | Добавлен: 15 янв 2014, 19:14 | Скачали: 2
Сидеров: 31  [0 байт/сек]    Личеров: 2  [0 байт/сек]
Пред. тема | След. тема 

Автор
Сообщение

СообщениеДобавлено: 15 янв 2014, 19:14 

Название: Хочу как ты
Оригинальное название: The Change-Up
Год выхода: 2011
Жанр: фэнтези, мелодрама, комедия
Режиссер: Дэвид Добкин

В ролях: Райан Рейнольдс, Джейсон Бейтман, Лесли Манн, Оливия Уайлд, Алан Аркин, Мирчи Монро, Грегори Итцин, Нед Шмидтке, Ло Минг, Сидни Рувьер

О фильме:
В детстве Митч и Дейв были неразлучными друзьями. Но со временем их дороги разошлись. Дейв стал успешным юристом и примерным семьянином. Митч же остался холостяком и сердцеедом. Он считает, что у друга есть все, о чем только можно мечтать: прекрасная жена Джейми, любящие дети и крутая работа. Дейву же представляется сказочной беззаботная жизнь Митча, который днем курит травку, а ночи проводит в компании красивых женщин.
Но однажды в жизни друзей все переворачивается вверх дном: Митч становится Дейвом, а Дейв — Митчем.
Митчу приходится заняться воспитанием троих детей Дейва и взять на себя его работу. На носу — крупная сделка, от результатов которой зависит карьера его друга, но Митч не смыслит в этом ничего.
Ситуацию также усложняет обворожительная коллега Дейва, Сабрина, которая не дает прохода Митчу. Старый Митч пошел бы на все, чтобы провести время с этой девушкой. Проблема лишь в том, что в его теле живет Дейв, идеальный муж и папаша, который не может расслабиться ни на минуту.
Друзья вскоре понимают, что реальность не такая радужная, как фантазии.
Героям придется как следует постараться, чтобы вернуть все на свое место и не разрушить окончательно жизни друг друга.



Выпущено: США
Продолжительность: 01:52:25
Перевод: Дублированный + Оригинал


Кодек: x264
Качество: BDRip 1080p
Видео: 1920x800, 8988 Kbps, 23.976 fps
Аудио #1: AC-3, 6 ch, 448 kbps (Rus)
Аудио #2: AC-3, 6 ch, 448 kbps (Eng)
Субтитры: русские форсированные, английские

Общее
Уникальный идентификатор : 175566000947226579686872644904855975199 (0x8414C826EEA451B5AC762CFE4CD6B51F)
Полное имя : Хочу как ты.2011.BDRip.1080p.Rus.Eng.mkv
Формат : Matroska
Версия формата : Version 2
Размер файла : 7,76 Гбайт
Продолжительность : 1 ч. 52 м.
Общий поток : 9883 Кбит/сек
Название фильма : Хочу как ты.2011
Дата кодирования : UTC 2014-01-15 15:17:20
Программа кодирования : mkvmerge v5.8.0 ('No Sleep / Pillow') built on Sep 2 2012 15:37:04
Библиотека кодирования : libebml v1.2.3 + libmatroska v1.3.0

Видео
Идентификатор : 1
Формат : AVC
Формат/Информация : Advanced Video Codec
Профиль формата : High@L4.1
Параметр CABAC формата : Да
Параметр ReFrames формата : 5 кадров
Идентификатор кодека : V_MPEG4/ISO/AVC
Продолжительность : 1 ч. 52 м.
Битрейт : 8988 Кбит/сек
Ширина : 1920 пикселей
Высота : 800 пикселей
Соотношение сторон : 2,40:1
Режим частоты кадров : Постоянный
Частота кадров : 23,976 кадра/сек
Цветовое пространство : YUV
Субдискретизация насыщенности : 4:2:0
Битовая глубина : 8 бит
Тип развёртки : Прогрессивная
Бит/(Пиксели*Кадры) : 0.244
Размер потока : 6,90 Гбайт (89%)
Заголовок : Rip by Boriy
Библиотека кодирования : x264 core 140 r2377 1ca7bb9
Настройки программы : cabac=1 / ref=5 / deblock=1:-3:-3 / analyse=0x3:0x113 / me=umh / subme=11 / psy=1 / psy_rd=1.00:0.00 / mixed_ref=1 / me_range=32 / chroma_me=1 / trellis=2 / 8x8dct=1 / cqm=0 / deadzone=21,11 / fast_pskip=0 / chroma_qp_offset=-2 / threads=12 / lookahead_threads=1 / sliced_threads=0 / nr=0 / decimate=0 / interlaced=0 / bluray_compat=0 / constrained_intra=0 / bframes=6 / b_pyramid=2 / b_adapt=2 / b_bias=0 / direct=3 / weightb=1 / open_gop=0 / weightp=2 / keyint=240 / keyint_min=23 / scenecut=40 / intra_refresh=0 / rc=2pass / mbtree=0 / bitrate=8988 / ratetol=1.0 / qcomp=0.60 / qpmin=0 / qpmax=69 / qpstep=4 / cplxblur=20.0 / qblur=0.5 / ip_ratio=1.40 / pb_ratio=1.30 / aq=1:0.80
Язык : English
Default : Да
Forced : Нет

Аудио #1
Идентификатор : 2
Формат : AC-3
Формат/Информация : Audio Coding 3
Расширение режима : CM (complete main)
Параметр Endianness формата : Big
Идентификатор кодека : A_AC3
Продолжительность : 1 ч. 52 м.
Вид битрейта : Постоянный
Битрейт : 448 Кбит/сек
Каналы : 6 каналов
Расположение каналов : Front: L C R, Side: L R, LFE
Частота : 48,0 КГц
Битовая глубина : 16 бит
Метод сжатия : С потерями
Размер потока : 360 Мбайт (5%)
Заголовок : Дубляж
Язык : Russian
Default : Да
Forced : Нет

Аудио #2
Идентификатор : 3
Формат : AC-3
Формат/Информация : Audio Coding 3
Расширение режима : CM (complete main)
Параметр Endianness формата : Big
Идентификатор кодека : A_AC3
Продолжительность : 1 ч. 52 м.
Вид битрейта : Постоянный
Битрейт : 448 Кбит/сек
Каналы : 6 каналов
Расположение каналов : Front: L C R, Side: L R, LFE
Частота : 48,0 КГц
Битовая глубина : 16 бит
Метод сжатия : С потерями
Размер потока : 360 Мбайт (5%)
Заголовок : Оригинал
Язык : English
Default : Нет
Forced : Нет

Текст #1
Идентификатор : 4
Формат : UTF-8
Идентификатор кодека : S_TEXT/UTF8
Идентификатор кодека/Информация : UTF-8 Plain Text
Заголовок : Forced
Язык : Russian
Default : Да
Forced : Да

Текст #2
Идентификатор : 5
Формат : UTF-8
Идентификатор кодека : S_TEXT/UTF8
Идентификатор кодека/Информация : UTF-8 Plain Text
Заголовок : Full
Язык : English
Default : Нет
Forced : Нет

Меню
00:00:00.000 : :Chapter 1
00:03:25.038 : :Chapter 2
00:09:23.729 : :Chapter 3
00:16:46.880 : :Chapter 4
00:23:17.270 : :Chapter 5
00:28:29.207 : :Chapter 6
00:34:43.372 : :Chapter 7
00:40:42.606 : :Chapter 8
00:46:20.235 : :Chapter 9
00:53:00.635 : :Chapter 10
00:58:16.451 : :Chapter 11
01:03:25.468 : :Chapter 12
01:08:38.322 : :Chapter 13
01:12:22.212 : :Chapter 14
01:18:03.345 : :Chapter 15
01:24:40.742 : :Chapter 16
01:28:30.138 : :Chapter 17
01:36:13.684 : :Chapter 18
01:38:55.721 : :Chapter 19
01:46:48.693 : :Chapter 20
загрузка...
Правила, инструкции, FAQ!!!
Торрент  Добавлен [15 янв 2014, 19:14] Скачать торрент
Скачать торрент
[ Размер 39.23 КБ / Просмотров 10 ]

Статус  
 
Размер  7.76 ГБ
Приватный: Нет (DHT включён)
.torrent скачан  2
Как залить торрент? | Как скачать Torrent? | Как смотреть и слушать онлайн?  


     Отправить личное сообщение
   
Страница 1 из 1
Показать сообщения за:  Поле сортировки  
Начать новую тему Ответить на тему

   Похожие торренты   Автор   Ответы   Просмотры   Последнее сообщение 
В этой теме нет новых непрочитанных сообщений. Скачать торрент Евротур / EuroTrip (2004) BDRip [1080p] [Theatrical]

в форуме 720p | 1080p, Размер: 9.23 ГБ, Здоровье: 100%

Anonymous

0
24|0

65
3

11 дек 2013, 09:00

Anonymous Перейти к последнему сообщению

В этой теме нет новых непрочитанных сообщений. Скачать торрент Проверен Битва у Красной скалы / Red Cliff / Chi bi (2008) BDRip 1080p | D | Theatrical cut

в форуме 720p | 1080p, Размер: 11.55 ГБ, Здоровье: 100%

Anonymous

0
84|49

74
129

08 ноя 2014, 22:36

Anonymous Перейти к последнему сообщению

В этой теме нет новых непрочитанных сообщений. Скачать торрент Проверен Эффект бабочки / The Butterfly Effect (2004) BDRip 1080p | Theatrical Cut

в форуме 720p | 1080p, Размер: 7.94 ГБ, Здоровье: 100%

Гость

0
45|4

46
94

07 дек 2014, 17:41

Гость Перейти к последнему сообщению

В этой теме нет новых непрочитанных сообщений. Скачать торрент Пол: Секретный материальчик / Paul (Грег Моттола / Greg Mottola) [2011, США, Великобритания, фантастика, комедия, приключения, BDRip 720p] [Theatrical Cut]

в форуме 720p | 1080p, Размер: 5 ГБ, Здоровье: 100%

Anonymous

0
47|16

17
0

25 фев 2014, 22:39

Anonymous Перейти к последнему сообщению

В этой теме нет новых непрочитанных сообщений. Скачать торрент Пол: Секретный материальчик / Paul (Грег Моттола / Greg Mottola) [2011, США, Великобритания, фантастика, комедия, приключения, BDRip] Theatrical Cut, DUB R5 + Sub (rus - forced)

в форуме Фантастика, Фэнтези, Размер: 1.46 ГБ, Здоровье: 100%

Anonymous

0
56|19

39
1

03 янв 2014, 11:29

Anonymous Перейти к последнему сообщению



Сейчас этот форум просматривают: нет зарегистрированных пользователей и гости: 1


Вы не можете начинать темы
Вы не можете отвечать на сообщения
Вы не можете редактировать свои сообщения
Вы не можете удалять свои сообщения
Вы не можете добавлять вложения

Перейти:  

!ВНИМАНИЕ!
 Ресурс не предоставляет электронные версии произведений, а занимается лишь коллекционированием и каталогизацией ссылок, присылаемых и публикуемых на форуме нашими читателями. Если вы являетесь правообладателем какого-либо представленного материала и не желаете чтобы ссылка на него находилась в нашем каталоге, свяжитесь с нами и мы незамедлительно удалим её. Файлы для обмена на трекере предоставлены пользователями сайта, и администрация не несёт ответственности за их содержание. Просьба не заливать файлы, защищенные авторскими правами, а также файлы нелегального содержания!