На всех торрентах на трекере установлена скидка на скачивание в размере 100 процентов(а).
 Возможность скачивания торрента НЕ зависит от ограничений при низком ратио, низком аплоаде, требуемом ратио или требуемом аплоаде.


Начать новую тему Ответить на тему
Статистика раздачи
Размер: 2.05 ГБ | Добавлен: 15 янв 2014, 11:40 | Скачали: 1
Сидеров: 0  [0 байт/сек]    Личеров: 1  [0 байт/сек]
Пред. тема | След. тема 

Автор
Сообщение

СообщениеДобавлено: 15 янв 2014, 11:40 

Название: Ключ
Оригинальное название: La chiave
Год выхода: 1983
Жанр: драма, для взрослых
Режиссер: Тинто Брасс

В ролях: Фрэнк Финлей, Стефания Сандрелли, Франко Бранчароли, Барбара Куписти, Мария Грация Бон, Джино Кавальери, Пьеро Бортолуцци, Ирма Файтен, Милли Коринальди, Джованни Микеланьоли

О фильме: Пожилой профессор-искусствовед Нино и после двадцати лет брака безумно любит свою красавицу-жену Терезу. Но она моложе мужа на 18 лет и мечтает о Ласло, женихе их дочери Лизы. Нино мучается от ревности, что еще больше разжигает его страсть. Но доктор предупреждает профессора, что у него высокое давление, и занятия сексом ему противопоказаны.

Тогда Нино и Тереза начинают вести дневники, в которые записывают свои самые интимные мысли и желания. Супруги намеренно оставляют ключ от письменного стола так, чтобы каждый мог прочитать дневник другого. Узнав о том, что Тереза стала любовницей Ласло, Нино благословляет ее. Искренне благодарная мужу за понимание и мудрость, Тереза дарит ему потрясающую ночь любви…



Страна: Италия
Продолжительность: 01:50:48
Перевод: Профессиональный (многоголосый закадровый), Оригинал (Итальянский)


Кодек: x.264
Качество: BDRip-AVC
Видео: 912x512 (16:9), 23,976 fps, 2234 kbps, 0.200 bit/pixel
Аудио #1: 48 kHz, AC3 Dolby Digital, 2 ch, ~224.00 kbps | Русский
Аудио #2: 48 kHz, AC3 Dolby Digital, 2 ch, ~192.00 kbps | Итальянский

&

Общее
Уникальный идентификатор : 175530129378274848998069691226770967900 (0x840DDF8C141996A296304190537D0D5C)
Полное имя : D:TorrentLa chiave.1983.BDRip-AVC.mkv
Формат : Matroska
Версия формата : Version 4 / Version 2
Размер файла : 2,05 Гбайт
Продолжительность : 1 ч. 50 м.
Общий поток : 2652 Кбит/сек
Название фильма : Ключ / La chiave (1983) BDRip-AVC rip by Rulya74
Дата кодирования : UTC 2014-01-15 05:59:02
Программа кодирования : mkvmerge v6.6.0 ('The Edge Of The In Between') built on Dec 1 2013 17:55:00
Библиотека кодирования : libebml v1.3.0 + libmatroska v1.4.1

Видео
Идентификатор : 1
Формат : AVC
Формат/Информация : Advanced Video Codec
Профиль формата : High@L4.1
Параметр CABAC формата : Да
Параметр ReFrames формата : 10 кадров
Идентификатор кодека : V_MPEG4/ISO/AVC
Продолжительность : 1 ч. 50 м.
Битрейт : 2234 Кбит/сек
Ширина : 912 пикселей
Высота : 512 пикселей
Соотношение сторон : 16:9
Режим частоты кадров : Постоянный
Частота кадров : 23,976 кадра/сек
Цветовое пространство : YUV
Субдискретизация насыщенности : 4:2:0
Битовая глубина : 8 бит
Тип развёртки : Прогрессивная
Бит/(Пиксели*Кадры) : 0.200
Размер потока : 1,69 Гбайт (82%)
Библиотека кодирования : x264 core 138 r2358 9e941d1
Настройки программы : cabac=1 / ref=10 / deblock=1:-1:-1 / analyse=0x3:0x2 / me=umh / subme=11 / psy=1 / psy_rd=1.10:0.80 / mixed_ref=1 / me_range=48 / chroma_me=1 / trellis=2 / 8x8dct=1 / cqm=0 / deadzone=21,11 / fast_pskip=0 / chroma_qp_offset=-4 / threads=6 / lookahead_threads=1 / sliced_threads=0 / nr=0 / decimate=1 / interlaced=0 / bluray_compat=0 / constrained_intra=0 / bframes=5 / b_pyramid=2 / b_adapt=1 / b_bias=0 / direct=3 / weightb=1 / open_gop=0 / weightp=2 / keyint=240 / keyint_min=23 / scenecut=40 / intra_refresh=0 / rc_lookahead=40 / rc=2pass / mbtree=1 / bitrate=2234 / ratetol=1.0 / qcomp=0.60 / qpmin=0 / qpmax=69 / qpstep=4 / cplxblur=20.0 / qblur=0.5 / vbv_maxrate=62500 / vbv_bufsize=78125 / nal_hrd=none / ip_ratio=1.40 / aq=1:1.00
Default : Да
Forced : Нет

Аудио #1
Идентификатор : 2
Формат : AC-3
Формат/Информация : Audio Coding 3
Расширение режима : CM (complete main)
Параметр Endianness формата : Big
Идентификатор кодека : A_AC3
Продолжительность : 1 ч. 50 м.
Вид битрейта : Постоянный
Битрейт : 224 Кбит/сек
Каналы : 2 канала
Расположение каналов : Front: L R
Частота : 48,0 КГц
Битовая глубина : 16 бит
Метод сжатия : С потерями
Размер потока : 178 Мбайт (8%)
Заголовок : Профессионвльный (многоголосый закадровый)
Язык : Russian
Default : Да
Forced : Нет

Аудио #2
Идентификатор : 3
Формат : AC-3
Формат/Информация : Audio Coding 3
Расширение режима : CM (complete main)
Параметр Endianness формата : Big
Идентификатор кодека : A_AC3
Продолжительность : 1 ч. 50 м.
Вид битрейта : Постоянный
Битрейт : 192 Кбит/сек
Каналы : 2 канала
Расположение каналов : Front: L R
Частота : 48,0 КГц
Битовая глубина : 16 бит
Метод сжатия : С потерями
Размер потока : 152 Мбайт (7%)
Заголовок : Оригинал
Язык : Italian
Default : Нет
Forced : Нет

Меню
00:00:00.000 : :Chapter 01
00:10:48.856 : :Chapter 02
00:20:04.411 : :Chapter 03
00:26:50.442 : :Chapter 04
00:35:07.980 : :Chapter 05
00:44:53.649 : :Chapter 06
00:54:28.265 : :Chapter 07
01:02:38.254 : :Chapter 08
01:11:05.552 : :Chapter 09
01:20:21.650 : :Chapter 10
01:29:34.660 : :Chapter 11
01:39:55.406 : :Chapter 12

загрузка...
Правила, инструкции, FAQ!!!
Торрент  Добавлен [15 янв 2014, 11:40] Скачать торрент
Скачать торрент
[ Размер 10.68 КБ / Просмотров 7 ]

Статус  
 
Размер  2.05 ГБ
Приватный: Нет (DHT включён)
.torrent скачан  1
Как залить торрент? | Как скачать Torrent? | Как смотреть и слушать онлайн?  


     Отправить личное сообщение
   
Страница 1 из 1
Показать сообщения за:  Поле сортировки  
Начать новую тему Ответить на тему

   Похожие торренты   Автор   Ответы   Просмотры   Последнее сообщение 
В этой теме нет новых непрочитанных сообщений. Скачать торрент Ключ от всех дверей / The Skeleton Key (2005) BDRip | P

в форуме Триллеры, Размер: 1.48 ГБ, Здоровье: 0%

Anonymous

0
0|0

33
0

24 мар 2014, 16:19

Anonymous Перейти к последнему сообщению

В этой теме нет новых непрочитанных сообщений. Скачать торрент Проверен (Italian Symphonic Prog) Chiave di Volta "Ritratto Libero" - 2005, FLAC (image+.cue), lossless

в форуме Progressive & Art-Rock, Размер: 362.41 МБ, Здоровье: 0%

Anonymous

0
0|0

3
0

30 авг 2016, 19:35

Anonymous Перейти к последнему сообщению

В этой теме нет новых непрочитанных сообщений. Скачать торрент Проверен Африканец / L'Africain (1983) BDRip 1080p | D, P

в форуме 720p | 1080p, Размер: 9.47 ГБ, Здоровье: 91%

Anonymous

0
31|34

42
62

31 окт 2014, 20:16

Anonymous Перейти к последнему сообщению

В этой теме нет новых непрочитанных сообщений. Скачать торрент Проверен На последнем дыхании / Breathless (1983) BDRip

в форуме Боевики, Размер: 1.45 ГБ, Здоровье: 0%

Гость

0
0|0

850
1

07 янв 2016, 09:31

Гость Перейти к последнему сообщению

В этой теме нет новых непрочитанных сообщений. Скачать торрент Проверен Изгои / The Outsiders (1983) BDRip 720p

в форуме 720p | 1080p, Размер: 9.75 ГБ, Здоровье: 100%

Гость

0
1|1

33
3

07 дек 2014, 17:59

Гость Перейти к последнему сообщению



Сейчас этот форум просматривают: нет зарегистрированных пользователей и гости: 3


Вы не можете начинать темы
Вы не можете отвечать на сообщения
Вы не можете редактировать свои сообщения
Вы не можете удалять свои сообщения
Вы не можете добавлять вложения

Перейти:  

!ВНИМАНИЕ!
 Ресурс не предоставляет электронные версии произведений, а занимается лишь коллекционированием и каталогизацией ссылок, присылаемых и публикуемых на форуме нашими читателями. Если вы являетесь правообладателем какого-либо представленного материала и не желаете чтобы ссылка на него находилась в нашем каталоге, свяжитесь с нами и мы незамедлительно удалим её. Файлы для обмена на трекере предоставлены пользователями сайта, и администрация не несёт ответственности за их содержание. Просьба не заливать файлы, защищенные авторскими правами, а также файлы нелегального содержания!