На всех торрентах на трекере установлена скидка на скачивание в размере 100 процентов(а).
 Возможность скачивания торрента НЕ зависит от ограничений при низком ратио, низком аплоаде, требуемом ратио или требуемом аплоаде.


Начать новую тему Ответить на тему
Статистика раздачи
Размер: 2.18 ГБ | Добавлен: 14 янв 2014, 20:27 | Скачали: 0
Сидеров: 3  [0 байт/сек]    Личеров: 0  [0 байт/сек]
Пред. тема | След. тема 

Автор
Сообщение

СообщениеДобавлено: 14 янв 2014, 20:27 

Название: Тройной агент
Оригинальное название: Triple agent
Год выхода: 2004
Жанр: драма
Режиссер: Эрик Ромер / Eric Rohmer

В ролях: Серж Ренко, Катерина Дидаскалу, Аманда Лангле, Эммануэль Салинжер, Сирил Клер, Дмитрий Рафальский, Виталий Черемет

О фильме:
Париж, 30-е годы XX века. Бывший генерал белой армии Федор Воронин занимается политической аналитикой и разведкой. Его деятельность сопряжена с многочисленными разъездами по Европе. Выполняя спецзадания, он совершает поездки в условиях строгой секретности. Но скоро его жена, гречанка Арсиноя, красавица художница, долгое время остававшаяся в неведении, начинает догадываться о тайной стороне жизни своего обожаемого мужа...



Страна: Россия, Франция, Италия, Испания, Греция
Студия: Rézo Productions, Compagnie Eric Rohmer (CER), France 2 Ciném
Продолжительность: 01:50:35.720
Перевод: Профессиональный (многоголосый, закадровый) ГТРК Культура

Исходник R2 DVD9


Кодек: h.264
Качество: DVDRip-AVC
Видео: 704x560 (16:9) @ 996x560 (анаморф), 25.000 fps, AVC, ~1520 Kbps, 0.154 bits/pixel
Звук:
Французский, 48.0 KHz, AC3, 2 ch, 192 Kbps
Русский, 48.0 KHz, AC3, 1 ch, 128 Kbps
Субтитры: нет

Общее
Уникальный идентификатор : 235222078473961762120357484522054079324 (0xB0F61FDC0C08091C91DF99C405DBD35C)
Полное имя : D:FilmsTroynoy_Agent.2004.DVDRip-AVC.mkv
Формат : Matroska
Версия формата : Version 4 / Version 2
Размер файла : 2,18 Гбайт
Продолжительность : 1 ч. 50 м.
Общий поток : 2818 Кбит/сек
Дата кодирования : UTC 2014-01-14 16:38:46
Программа кодирования : mkvmerge v6.7.0 ('Back to the Ground') 64bit built on Jan 8 2014 15:10:52
Библиотека кодирования : libebml v1.3.0 + libmatroska v1.4.1

Видео
Идентификатор : 1
Формат : AVC
Формат/Информация : Advanced Video Codec
Профиль формата : High@L4.1
Параметр CABAC формата : Да
Параметр ReFrames формата : 16 кадров
Идентификатор кодека : V_MPEG4/ISO/AVC
Продолжительность : 1 ч. 50 м.
Битрейт : 2497 Кбит/сек
Ширина : 688 пикселей
Высота : 560 пикселей
Соотношение сторон : 4:3
Соотношение сторон в оригинале : 4:3
Режим частоты кадров : Постоянный
Частота кадров : 25,000 кадров/сек
Цветовое пространство : YUV
Субдискретизация насыщенности : 4:2:0
Битовая глубина : 8 бит
Тип развёртки : Прогрессивная
Бит/(Пиксели*Кадры) : 0.259
Размер потока : 1,89 Гбайт (87%)
Библиотека кодирования : x264 core 138 r2358 9e941d1
Настройки программы : cabac=1 / ref=16 / deblock=1:0:0 / analyse=0x3:0x133 / me=umh / subme=10 / psy=1 / psy_rd=1.05:0.10 / mixed_ref=1 / me_range=32 / chroma_me=1 / trellis=2 / 8x8dct=1 / cqm=0 / deadzone=21,11 / fast_pskip=0 / chroma_qp_offset=-3 / threads=8 / lookahead_threads=2 / sliced_threads=0 / nr=0 / decimate=0 / interlaced=0 / bluray_compat=0 / constrained_intra=0 / bframes=13 / b_pyramid=2 / b_adapt=2 / b_bias=0 / direct=3 / weightb=1 / open_gop=0 / weightp=2 / keyint=250 / keyint_min=25 / scenecut=40 / intra_refresh=0 / rc_lookahead=60 / rc=2pass / mbtree=0 / bitrate=2497 / ratetol=1.0 / qcomp=0.60 / qpmin=0 / qpmax=60 / qpstep=4 / cplxblur=20.0 / qblur=0.5 / vbv_maxrate=50000 / vbv_bufsize=62500 / nal_hrd=none / ip_ratio=1.40 / pb_ratio=1.30 / aq=1:1.00
Default : Нет
Forced : Нет
Коэффициенты матрицы : BT.601

Аудио #1
Идентификатор : 2
Формат : AC-3
Формат/Информация : Audio Coding 3
Расширение режима : CM (complete main)
Параметр Endianness формата : Big
Идентификатор кодека : A_AC3
Продолжительность : 1 ч. 50 м.
Вид битрейта : Постоянный
Битрейт : 192 Кбит/сек
Каналы : 2 канала
Расположение каналов : Front: L R
Частота : 48,0 КГц
Битовая глубина : 16 бит
Метод сжатия : С потерями
Размер потока : 152 Мбайт (7%)
Язык : French
Default : Нет
Forced : Нет

Аудио #2
Идентификатор : 3
Формат : AC-3
Формат/Информация : Audio Coding 3
Расширение режима : CM (complete main)
Параметр Endianness формата : Big
Идентификатор кодека : A_AC3
Продолжительность : 1 ч. 50 м.
Вид битрейта : Постоянный
Битрейт : 128 Кбит/сек
Каналы : 1 канал
Расположение каналов : Front: C
Частота : 48,0 КГц
Битовая глубина : 16 бит
Метод сжатия : С потерями
Размер потока : 101 Мбайт (5%)
Язык : Russian
Default : Да
Forced : Нет

Меню
00:00:00.000 : en:Chapter 01
00:08:45.200 : en:Chapter 02
00:14:08.640 : en:Chapter 03
00:21:30.120 : en:Chapter 04
00:27:17.480 : en:Chapter 05
00:37:28.480 : en:Chapter 06
00:42:31.120 : en:Chapter 07
00:50:03.520 : en:Chapter 08
01:01:16.920 : en:Chapter 09
01:10:32.280 : en:Chapter 10
01:20:19.360 : en:Chapter 11
01:34:24.360 : en:Chapter 12
01:41:32.840 : en:Chapter 13
01:50:34.160 : en:Chapter 14




Релиз от: Temperest
загрузка...
Правила, инструкции, FAQ!!!
Торрент  Добавлен [14 янв 2014, 20:27] Скачать торрент
Скачать торрент
[ Размер 11.41 КБ / Просмотров 4 ]

Статус  
 
Размер  2.18 ГБ
Приватный: Нет (DHT включён)
.torrent скачан  0
Как залить торрент? | Как скачать Torrent? | Как смотреть и слушать онлайн?  


     Отправить личное сообщение
   
Страница 1 из 1
Показать сообщения за:  Поле сортировки  
Начать новую тему Ответить на тему

   Похожие торренты   Автор   Ответы   Просмотры   Последнее сообщение 
В этой теме нет новых непрочитанных сообщений. Скачать торрент Проверен Агент пришельцев / Alien Agent (2007) DVDRip МР4

в форуме Видео для смартфонов и КПК, Размер: 486.57 МБ, Здоровье: ???%

Anonymous

0
0|1

50
0

25 окт 2014, 23:28

Anonymous Перейти к последнему сообщению

В этой теме нет новых непрочитанных сообщений. Скачать торрент Проверен Агент Коди Бэнкс / Agent Cody Banks (2003) BDRip 720p | D, P, P2

в форуме 720p | 1080p, Размер: 4.84 ГБ, Здоровье: 100%

Гость

0
3|0

303
3

21 май 2016, 23:31

Гость Перейти к последнему сообщению

В этой теме нет новых непрочитанных сообщений. Скачать торрент Проверен Дэвид Майклс | Специальный агент (Tom Clancy’s Splinter Cell) [2004] [PDF, FB2]

в форуме Детективы и Боевики, Размер: 7.69 МБ, Здоровье: 0%

Anonymous

0
0|0

43
0

18 сен 2014, 17:43

Anonymous Перейти к последнему сообщению

В этой теме нет новых непрочитанных сообщений. Скачать торрент Проверен Ирина Мельникова - Агент сыскной полиции [Вячеслав Герасимов, 2004]

в форуме Детектив и Боевики, Размер: 725.18 МБ, Здоровье: 100%

Anonymous

0
1|0

5
0

04 май 2016, 22:52

Anonymous Перейти к последнему сообщению

В этой теме нет новых непрочитанных сообщений. Скачать торрент Проверен Мельникова Ирина - Агент сыскной полиции 01. Агент сыскной полиции [Герасимов Вячеслав, 2011, 96 kbps, MP3]

в форуме Детектив и Боевики, Размер: 537.4 МБ, Здоровье: 100%

Anonymous

0
20|7

0
0

20 ноя 2016, 16:49

Anonymous Перейти к последнему сообщению



Сейчас этот форум просматривают: нет зарегистрированных пользователей и гости: 2


Вы не можете начинать темы
Вы не можете отвечать на сообщения
Вы не можете редактировать свои сообщения
Вы не можете удалять свои сообщения
Вы не можете добавлять вложения

Перейти:  

!ВНИМАНИЕ!
 Ресурс не предоставляет электронные версии произведений, а занимается лишь коллекционированием и каталогизацией ссылок, присылаемых и публикуемых на форуме нашими читателями. Если вы являетесь правообладателем какого-либо представленного материала и не желаете чтобы ссылка на него находилась в нашем каталоге, свяжитесь с нами и мы незамедлительно удалим её. Файлы для обмена на трекере предоставлены пользователями сайта, и администрация не несёт ответственности за их содержание. Просьба не заливать файлы, защищенные авторскими правами, а также файлы нелегального содержания!