На всех торрентах на трекере установлена скидка на скачивание в размере 100 процентов(а).
 Возможность скачивания торрента НЕ зависит от ограничений при низком ратио, низком аплоаде, требуемом ратио или требуемом аплоаде.


Начать новую тему Ответить на тему
Статистика раздачи
Размер: 7.75 ГБ | Добавлен: 14 янв 2014, 13:43 | Скачали: 2
Сидеров: 1  [0 байт/сек]    Личеров: 0  [0 байт/сек]
Пред. тема | След. тема 

Автор
Сообщение

СообщениеДобавлено: 14 янв 2014, 13:43 

Информация о фильме

Название: Незаконченная жизнь
Оригинальное название: An Unfinished Life
Год выпуска: 2005
Жанр: Драма
Выпущено: США, Германия, Miramax Films, Initial Entertainment Group (IEG), Kalis Productions GmbH & Co. Zweite KG, Persistent Entertainment, Revolution Studios
Режиссер: Лассе Халльстрём

В ролях: Роберт Редфорд, Дженнифер Лопес, Морган Фримен, Джош Лукас, Дэмиэн Льюис, Камрин Менхейм, Бекка Гарднер, Линда Бойд, Роб Хэйтер, П. Линн Джонсон, Байрон Лукас, Тревор Мосс, Р. Нельсон Браун, Диллард Бринсон, Джейсон Диабло, Шон Дж. Дори, Брайан Коренберг, Бонни Бартон, Даниэль Данн-Моррис, Сандра Полсон, Дэйл Киплинг

Перевод: Дублированный


Сюжет фильма

«Каждая раскрытая тайна - лишь дверь в новую загадку»

Эйнар Джилкисон, на протяжении последних десяти лет тяжело переживающий смерть своего единственного сына, совершенно запустил собственное ранчо и разрушил свой брак. Единственный человек, о котором Эйнар продолжает заботиться, — это его наемный работник и друг Митч, который был страшно искалечен медведем-гризли. Утратив всякую связь с внешним миром, Эйнар собирается именно так провести остаток своей жизни. Но однажды к нему приезжает его невестка Джин, которую он винит в смерти сына. Джин тоже переживает далеко не лучший период в своей жизни: она разорена, находится в бегах, и у нее на руках девочка по имени Грифф, которая, по словам Джин, приходится внучкой Эйнару. Спокойной жизни Эйнара приходит конец. Атмосфера накаляется, герои не могут удержаться от вспышек гнева и взаимных обвинений… Но в конце концов происходит чудо: интерес 11-летней Грифф к сельской жизни и ее давняя тоска по семье и отцу начинают постепенно растапливать лед, сковавший сердце Эйнара…



Файл
Качество: BDRip 1080p (исходник Blu-ray)
Видео: 1920x800, 9 014 Кбит/сек, 23.976 кадр/сек, AVC, x264, High@L4.1, 0.245 Бит/[Пиксели*Кадры], 2pass
Аудио 1: AC3 5.1 48 kHz 640 kbps - Дублированный
Аудио 2: AC3 5.1 48 kHz 640 kbps - Оригинал / Английский
Чаптеры: есть
Продолжительность: 01:47:50
Автор Рипа:



Format : Matroska
Format version : Version 2
File size : 7.75 GiB
Duration : 1h 47mn
Overall bit rate : 10.3 Mbps
Movie name : Nezakonchennaja zhizn'.(2005).BDRip.1080p.[denis100]
Encoded date : UTC 2014-01-14 09:40:24
Writing application : mkvmerge v5.8.0 ('No Sleep / Pillow') built on Sep 2 2012 15:37:04
Writing library : libebml v1.2.3 + libmatroska v1.3.0

Video
ID : 1
Format : AVC
Format/Info : Advanced Video Codec
Format profile : High@L4.1
Format settings, CABAC : Yes
Format settings, ReFrames : 5 frames
Codec ID : V_MPEG4/ISO/AVC
Duration : 1h 47mn
Bit rate : 9 014 Kbps
Width : 1 920 pixels
Height : 800 pixels
Display aspect ratio : 2.40:1
Frame rate mode : Constant
Frame rate : 23.976 fps
Color space : YUV
Chroma subsampling : 4:2:0
Bit depth : 8 bits
Scan type : Progressive
Bits/(Pixel*Frame) : 0.245
Stream size : 6.63 GiB (86%)
Title : Nezakonchennaja zhizn'.(2005).BDRip.1080p от _denis_100
Writing library : x264 core 140 r2377 1ca7bb9
Encoding settings : cabac=1 / ref=5 / deblock=1:-3:-3 / analyse=0x3:0x133 / me=umh / subme=11 / psy=1 / psy_rd=1.00:0.10 / mixed_ref=1 / me_range=32 / chroma_me=1 / trellis=2 / 8x8dct=1 / cqm=0 / deadzone=21,11 / fast_pskip=0 / chroma_qp_offset=-3 / threads=6 / lookahead_threads=1 / sliced_threads=0 / nr=0 / decimate=0 / interlaced=0 / bluray_compat=0 / constrained_intra=0 / bframes=7 / b_pyramid=2 / b_adapt=2 / b_bias=0 / direct=3 / weightb=1 / open_gop=0 / weightp=2 / keyint=240 / keyint_min=23 / scenecut=40 / intra_refresh=0 / rc=2pass / mbtree=0 / bitrate=9014 / ratetol=1.0 / qcomp=0.60 / qpmin=0 / qpmax=69 / qpstep=4 / cplxblur=20.0 / qblur=0.5 / ip_ratio=1.40 / pb_ratio=1.30 / aq=1:0.90
Language : English
Default : Yes
Forced : No

Audio #1
ID : 2
Format : AC-3
Format/Info : Audio Coding 3
Mode extension : CM (complete main)
Format settings, Endianness : Big
Codec ID : A_AC3
Duration : 1h 47mn
Bit rate mode : Constant
Bit rate : 640 Kbps
Channel count : 6 channels
Channel positions : Front: L C R, Side: L R, LFE
Sampling rate : 48.0 KHz
Bit depth : 16 bits
Compression mode : Lossy
Stream size : 494 MiB (6%)
Title : Дублированный
Language : Russian
Default : Yes
Forced : No

Audio #2
ID : 3
Format : AC-3
Format/Info : Audio Coding 3
Mode extension : CM (complete main)
Format settings, Endianness : Big
Codec ID : A_AC3
Duration : 1h 47mn
Bit rate mode : Constant
Bit rate : 640 Kbps
Channel count : 6 channels
Channel positions : Front: L C R, Side: L R, LFE
Sampling rate : 48.0 KHz
Bit depth : 16 bits
Compression mode : Lossy
Stream size : 494 MiB (6%)
Title : English
Language : English
Default : No
Forced : No

Menu
00:00:00.000 : en:00:00:00.000
00:10:14.322 : en:00:10:14.322
00:19:37.259 : en:00:19:37.259
00:29:39.736 : en:00:29:39.736
00:39:34.914 : en:00:39:34.914
00:48:44.004 : en:00:48:44.004
00:57:02.001 : en:00:57:02.001
01:06:27.650 : en:01:06:27.650
01:16:26.915 : en:01:16:26.915
01:24:22.766 : en:01:24:22.766
01:33:48.497 : en:01:33:48.497
01:39:22.456 : en:01:39:22.456
загрузка...
Правила, инструкции, FAQ!!!
Торрент  Добавлен [14 янв 2014, 13:43] Скачать торрент
Скачать торрент
[ Размер 39.2 КБ / Просмотров 7 ]

Статус  
 
Размер  7.75 ГБ
Приватный: Нет (DHT включён)
.torrent скачан  2
Как залить торрент? | Как скачать Torrent? | Как смотреть и слушать онлайн?  


     Отправить личное сообщение
   
Страница 1 из 1
Показать сообщения за:  Поле сортировки  
Начать новую тему Ответить на тему

   Похожие торренты   Автор   Ответы   Просмотры   Последнее сообщение 
В этой теме нет новых непрочитанных сообщений. Скачать торрент Незаконченная жизнь / An Unfinished Life (2005) Blu-Ray Remux 1080p

в форуме BD-Remux, Размер: 17.48 ГБ, Здоровье: 100%

Anonymous

0
3|0

74
2

04 янв 2014, 17:06

Anonymous Перейти к последнему сообщению

В этой теме нет новых непрочитанных сообщений. Скачать торрент Жизнь короля / Life of a King (2013) BDRip 1080p | L1

в форуме 720p | 1080p, Размер: 8.08 ГБ, Здоровье: 0%

Anonymous

0
0|0

36
0

09 мар 2014, 08:54

Anonymous Перейти к последнему сообщению

В этой теме нет новых непрочитанных сообщений. Скачать торрент Проверен Жизнь этого парня / This Boy's Life (1993) BDRip 1080p

в форуме 720p | 1080p, Размер: 7.75 ГБ, Здоровье: 10%

Гость

0
14|137

44
6

28 мар 2015, 14:47

Гость Перейти к последнему сообщению

В этой теме нет новых непрочитанных сообщений. Скачать торрент Проверен Водная жизнь / The Life Aquatic with Steve Zissou (2004) BDRip 1080p | P, P2

в форуме 720p | 1080p, Размер: 14.62 ГБ, Здоровье: 100%

Anonymous

0
2|0

29
68

12 июл 2014, 21:34

Anonymous Перейти к последнему сообщению

В этой теме нет новых непрочитанных сообщений. Скачать торрент Сексуальная жизнь / Жизнь как секс / Sexual life (Кен Куопис / Ken Kwapis) [2005 г., Мелодрама, комедия, DVDRip]

в форуме Драмы, Мелодрамы, Размер: 1.36 ГБ, Здоровье: 10%

Anonymous

0
3|29

100
3

25 апр 2014, 08:53

Anonymous Перейти к последнему сообщению



Сейчас этот форум просматривают: нет зарегистрированных пользователей и гости: 6


Вы не можете начинать темы
Вы не можете отвечать на сообщения
Вы не можете редактировать свои сообщения
Вы не можете удалять свои сообщения
Вы не можете добавлять вложения

Перейти:  

!ВНИМАНИЕ!
 Ресурс не предоставляет электронные версии произведений, а занимается лишь коллекционированием и каталогизацией ссылок, присылаемых и публикуемых на форуме нашими читателями. Если вы являетесь правообладателем какого-либо представленного материала и не желаете чтобы ссылка на него находилась в нашем каталоге, свяжитесь с нами и мы незамедлительно удалим её. Файлы для обмена на трекере предоставлены пользователями сайта, и администрация не несёт ответственности за их содержание. Просьба не заливать файлы, защищенные авторскими правами, а также файлы нелегального содержания!