На всех торрентах на трекере установлена скидка на скачивание в размере 100 процентов(а).
 Возможность скачивания торрента НЕ зависит от ограничений при низком ратио, низком аплоаде, требуемом ратио или требуемом аплоаде.


Начать новую тему Ответить на тему
Статистика раздачи
Размер: 7.95 ГБ | Добавлен: 14 янв 2014, 13:04 | Скачали: 0
Сидеров: 3  [0 байт/сек]    Личеров: 0  [0 байт/сек]
Пред. тема | След. тема 

Автор
Сообщение

СообщениеДобавлено: 14 янв 2014, 13:04 

Информация о фильме

Название: Его игра
Оригинальное название: He Got Game
Год выпуска: 1998
Жанр: Драма, спорт
Выпущено: США, Touchstone Pictures
Режиссер: Спайк Ли
В ролях: Дензел Вашингтон, Рэй Аллен, Милла Йовович, Розарио Доусон, Хилл Харпер, Зельда Харрис, Нед Битти, Джим Браун, Джозеф Лайл Тейлор, Билл Нанн

Перевод: Профессиональный (двухголосый закадровый), авторский


Сюжет фильма

У осужденного за убийство Джейка Шаттлсуорта появляется призрачный шанс выйти на свободу раньше, чем через положенные ему 15 лет. Он просто должен убедить своего сына – талантливого баскетболиста – поступить в определенный университет. С этой целью два сопровождающих агента привозят Джейка в Нью-Йорк и селят в гадюшник, именуемый гостиницей. С радиомаяком на ноге и проституткой по соседству, Джейк получает несколько дней свободы, чтобы вновь обрести сына, мать которого он убил шесть лет назад.



Файл
Качество: BDRip 1080p (исходник Blu-ray)
Видео: 1920x1036, 7 473 Кбит/сек, 25.000 кадр/сек, AVC, x264, High@L4.1, 0.150 Бит/[Пиксели*Кадры], 2pass
Аудио 1: AC3 5.1 48 kHz 384 kbps - Профессиональный (двухголосый закадровый), Twister
Аудио 2: AC3 2.0 48 kHz 192 kbps - Авторский (Андрей Гаврилов)
Аудио 3: AC3 5.1 48 kHz 640 kbps - Оригинал / Английский
Чаптеры: есть
Субтитры: Русские, Английские
Продолжительность: 02:10:59
Автор Рипа:



Format : Matroska
Format version : Version 2
File size : 7.95 GiB
Duration : 2h 10mn
Overall bit rate : 8 691 Kbps
Movie name : Ego igra.(1998).BDRip.1080p.[denis100]
Encoded date : UTC 2014-01-12 12:24:02
Writing application : mkvmerge v5.8.0 ('No Sleep / Pillow') built on Sep 2 2012 15:37:04
Writing library : libebml v1.2.3 + libmatroska v1.3.0

Video
ID : 1
Format : AVC
Format/Info : Advanced Video Codec
Format profile : High@L4.1
Format settings, CABAC : Yes
Format settings, ReFrames : 4 frames
Codec ID : V_MPEG4/ISO/AVC
Duration : 2h 10mn
Bit rate : 7 473 Kbps
Width : 1 920 pixels
Height : 1 036 pixels
Display aspect ratio : 1.85:1
Frame rate mode : Constant
Frame rate : 25.000 fps
Color space : YUV
Chroma subsampling : 4:2:0
Bit depth : 8 bits
Scan type : Progressive
Bits/(Pixel*Frame) : 0.150
Stream size : 6.68 GiB (84%)
Title : Ego igra.(1998).BDRip.1080p от _denis_100
Writing library : x264 core 140 r2377 1ca7bb9
Encoding settings : cabac=1 / ref=4 / deblock=1:-3:-3 / analyse=0x3:0x133 / me=umh / subme=11 / psy=1 / psy_rd=1.00:0.10 / mixed_ref=1 / me_range=32 / chroma_me=1 / trellis=2 / 8x8dct=1 / cqm=0 / deadzone=21,11 / fast_pskip=0 / chroma_qp_offset=-3 / threads=6 / lookahead_threads=1 / sliced_threads=0 / nr=0 / decimate=0 / interlaced=0 / bluray_compat=0 / constrained_intra=0 / bframes=8 / b_pyramid=2 / b_adapt=2 / b_bias=0 / direct=3 / weightb=1 / open_gop=0 / weightp=2 / keyint=250 / keyint_min=25 / scenecut=40 / intra_refresh=0 / rc=2pass / mbtree=0 / bitrate=7473 / ratetol=1.0 / qcomp=0.60 / qpmin=0 / qpmax=69 / qpstep=4 / cplxblur=20.0 / qblur=0.5 / ip_ratio=1.40 / pb_ratio=1.30 / aq=1:0.90
Language : English
Default : Yes
Forced : No

Audio #1
ID : 2
Format : AC-3
Format/Info : Audio Coding 3
Mode extension : CM (complete main)
Format settings, Endianness : Big
Codec ID : A_AC3
Duration : 2h 10mn
Bit rate mode : Constant
Bit rate : 384 Kbps
Channel count : 6 channels
Channel positions : Front: L C R, Side: L R, LFE
Sampling rate : 48.0 KHz
Bit depth : 16 bits
Compression mode : Lossy
Stream size : 360 MiB (4%)
Title : Профессиональный (двухголосый), Twister
Language : Russian
Default : Yes
Forced : No

Audio #2
ID : 3
Format : AC-3
Format/Info : Audio Coding 3
Mode extension : CM (complete main)
Format settings, Endianness : Big
Codec ID : A_AC3
Duration : 2h 10mn
Bit rate mode : Constant
Bit rate : 192 Kbps
Channel count : 2 channels
Channel positions : Front: L R
Sampling rate : 48.0 KHz
Bit depth : 16 bits
Compression mode : Lossy
Stream size : 180 MiB (2%)
Title : Авторский (Андрей Гаврилов)
Language : Russian
Default : No
Forced : No

Audio #3
ID : 4
Format : AC-3
Format/Info : Audio Coding 3
Mode extension : CM (complete main)
Format settings, Endianness : Big
Codec ID : A_AC3
Duration : 2h 10mn
Bit rate mode : Constant
Bit rate : 640 Kbps
Channel count : 6 channels
Channel positions : Front: L C R, Side: L R, LFE
Sampling rate : 48.0 KHz
Bit depth : 16 bits
Compression mode : Lossy
Stream size : 600 MiB (7%)
Title : Оригинал / Английский
Language : English
Default : No
Forced : No

Text #1
ID : 5
Format : UTF-8
Codec ID : S_TEXT/UTF8
Codec ID/Info : UTF-8 Plain Text
Title : Русские (Twister)
Language : Russian
Default : No
Forced : No

Text #2
ID : 6
Format : UTF-8
Codec ID : S_TEXT/UTF8
Codec ID/Info : UTF-8 Plain Text
Title : английские
Language : English
Default : No
Forced : No

Menu
00:00:00.000 : en:00:00:00.000
00:09:36.920 : en:00:09:36.920
00:18:51.120 : en:00:18:51.120
00:34:39.000 : en:00:34:39.000
00:44:53.320 : en:00:44:53.320
00:57:04.160 : en:00:57:04.160
01:06:52.320 : en:01:06:52.320
01:15:14.280 : en:01:15:14.280
01:27:05.720 : en:01:27:05.720
01:39:08.440 : en:01:39:08.440
01:50:35.400 : en:01:50:35.400
02:00:35.800 : en:02:00:35.800
загрузка...
Правила, инструкции, FAQ!!!
Торрент  Добавлен [14 янв 2014, 13:04] Скачать торрент
Скачать торрент
[ Размер 40.18 КБ / Просмотров 17 ]

Статус  
 
Размер  7.95 ГБ
Приватный: Нет (DHT включён)
.torrent скачан  0
Как залить торрент? | Как скачать Torrent? | Как смотреть и слушать онлайн?  


     Отправить личное сообщение
   
Страница 1 из 1
Показать сообщения за:  Поле сортировки  
Начать новую тему Ответить на тему

   Похожие торренты   Автор   Ответы   Просмотры   Последнее сообщение 
В этой теме нет новых непрочитанных сообщений. Скачать торрент Проверен Игра / The Game (1997) BDRip 1080p

в форуме 720p | 1080p, Размер: 5.77 ГБ, Здоровье: 100%

Гость

0
128|35

16
136

13 ноя 2016, 22:51

Гость Перейти к последнему сообщению

В этой теме нет новых непрочитанных сообщений. Скачать торрент Проверен Его игра / He Got Game (1998) BDRip

в форуме Драмы, Мелодрамы, Размер: 2.18 ГБ, Здоровье: 100%

Гость

0
39|25

152
167

29 сен 2015, 22:16

Гость Перейти к последнему сообщению

В этой теме нет новых непрочитанных сообщений. Скачать торрент Проверен Игра в имитацию / The Imitation Game (2014) BDRip 1080p | D

в форуме 720p | 1080p, Размер: 7.41 ГБ, Здоровье: 100%

Гость

0
363|219

44
237

28 мар 2015, 00:08

Гость Перейти к последнему сообщению

В этой теме нет новых непрочитанных сообщений. Скачать торрент Проверен Жестокая игра / The Crying Game (1992) BDRip 1080p | P2, A

в форуме 720p | 1080p, Размер: 7.35 ГБ, Здоровье: 100%

Anonymous

0
38|19

95
79

12 июн 2015, 23:28

Anonymous Перейти к последнему сообщению

В этой теме нет новых непрочитанных сообщений. Скачать торрент Проверен Игра смерти / Game of Death / Si wang you xi (1978) BDRip [H.264/1080p]

в форуме 720p | 1080p, Размер: 11.73 ГБ, Здоровье: 0%

Гость

0
0|0

54
1

22 май 2015, 10:02

Гость Перейти к последнему сообщению



Сейчас этот форум просматривают: нет зарегистрированных пользователей и гости: 1


Вы не можете начинать темы
Вы не можете отвечать на сообщения
Вы не можете редактировать свои сообщения
Вы не можете удалять свои сообщения
Вы не можете добавлять вложения

Перейти:  

!ВНИМАНИЕ!
 Ресурс не предоставляет электронные версии произведений, а занимается лишь коллекционированием и каталогизацией ссылок, присылаемых и публикуемых на форуме нашими читателями. Если вы являетесь правообладателем какого-либо представленного материала и не желаете чтобы ссылка на него находилась в нашем каталоге, свяжитесь с нами и мы незамедлительно удалим её. Файлы для обмена на трекере предоставлены пользователями сайта, и администрация не несёт ответственности за их содержание. Просьба не заливать файлы, защищенные авторскими правами, а также файлы нелегального содержания!