На всех торрентах на трекере установлена скидка на скачивание в размере 100 процентов(а).
 Возможность скачивания торрента НЕ зависит от ограничений при низком ратио, низком аплоаде, требуемом ратио или требуемом аплоаде.


Начать новую тему Ответить на тему
Статистика раздачи
Размер: 7.76 ГБ | Добавлен: 13 янв 2014, 20:05 | Скачали: 7
Сидеров: 19  [0 байт/сек]    Личеров: 2  [0 байт/сек]
Пред. тема | След. тема 

Автор
Сообщение

СообщениеДобавлено: 13 янв 2014, 20:05 

Название: Разрушитель
Оригинальное название: Demolition Man
Год выхода: 1993
Жанр: фантастика, боевик, триллер, криминал
Режиссер: Марко Брамбилла

В ролях: Сильвестр Сталлоне, Уэсли Снайпс, Сандра Буллок, Найджел Хоторн, Бенджамин Брэтт, Боб Гантон, Гленн Шэдикс, Денис Лири, Гранд Л. Буш, Пэт Скиппер

О фильме:
В 2032 году в крио-тюрьме после 35-летней заморозки пробуждается один из самых опасных преступников Саймон Феникс и решает взять приступом спокойный, свободный от всякого насилия Лос-Анджелес.
Неспособные справиться с жестокими повадками 1990-х годов, свойственными Фениксу, официальные власти ищут полицейского тех лет, который смог бы одержать верх над преступником 90-х. Для этого они размораживают сержанта Джона Спартана, несправедливо осужденного на срок в крио-тюрьме за его последнюю схватку с Фениксом.



Выпущено: США
Продолжительность: 01:55:02
Перевод: Дублированный + Авторский (одноголосый закадровый) А. Гаврилов + Оригинал


Кодек: x264
Качество: BDRip 1080p
Видео: 1920x800, 7740 Kbps, 23.976 fps
Аудио #1: AC-3, 6 ch, 640 kbps (Rus)
Аудио #2: AC-3, 6 ch, 640 kbps (Rus)|Одноголосый закадровый, А. Гаврилов|
Аудио #3: AC-3, 6 ch, 640 kbps (Eng)
Субтитры: русские (полные, форсированные), английские

Общее
Уникальный идентификатор : 208583825178612177903038626718534209156 (0x9CEBC892515A0EF8BA942F6A8F6E0E84)
Полное имя : Разрушитель.1993.BDRip.1080p.Rus.Eng.mkv
Формат : Matroska
Версия формата : Version 2
Размер файла : 7,76 Гбайт
Продолжительность : 1 ч. 55 м.
Общий поток : 9659 Кбит/сек
Название фильма : Разрушитель.1993
Дата кодирования : UTC 2014-01-13 14:06:58
Программа кодирования : mkvmerge v5.8.0 ('No Sleep / Pillow') built on Sep 2 2012 15:37:04
Библиотека кодирования : libebml v1.2.3 + libmatroska v1.3.0

Видео
Идентификатор : 1
Формат : AVC
Формат/Информация : Advanced Video Codec
Профиль формата : High@L4.1
Параметр CABAC формата : Да
Параметр ReFrames формата : 5 кадров
Идентификатор кодека : V_MPEG4/ISO/AVC
Продолжительность : 1 ч. 55 м.
Битрейт : 7740 Кбит/сек
Ширина : 1920 пикселей
Высота : 800 пикселей
Соотношение сторон : 2,40:1
Режим частоты кадров : Постоянный
Частота кадров : 23,976 кадра/сек
Цветовое пространство : YUV
Субдискретизация насыщенности : 4:2:0
Битовая глубина : 8 бит
Тип развёртки : Прогрессивная
Бит/(Пиксели*Кадры) : 0.210
Размер потока : 6,07 Гбайт (78%)
Заголовок : Rip by Boriy
Библиотека кодирования : x264 core 140 r2377 1ca7bb9
Настройки программы : cabac=1 / ref=5 / deblock=1:-3:-3 / analyse=0x3:0x113 / me=umh / subme=11 / psy=1 / psy_rd=1.00:0.00 / mixed_ref=1 / me_range=32 / chroma_me=1 / trellis=2 / 8x8dct=1 / cqm=0 / deadzone=21,11 / fast_pskip=0 / chroma_qp_offset=-2 / threads=12 / lookahead_threads=1 / sliced_threads=0 / nr=0 / decimate=0 / interlaced=0 / bluray_compat=0 / constrained_intra=0 / bframes=6 / b_pyramid=2 / b_adapt=2 / b_bias=0 / direct=3 / weightb=1 / open_gop=0 / weightp=2 / keyint=240 / keyint_min=23 / scenecut=40 / intra_refresh=0 / rc=2pass / mbtree=0 / bitrate=7740 / ratetol=1.0 / qcomp=0.60 / qpmin=0 / qpmax=69 / qpstep=4 / cplxblur=20.0 / qblur=0.5 / ip_ratio=1.40 / pb_ratio=1.30 / aq=1:0.80
Язык : English
Default : Да
Forced : Нет

Аудио #1
Идентификатор : 2
Формат : AC-3
Формат/Информация : Audio Coding 3
Расширение режима : CM (complete main)
Параметр Endianness формата : Big
Идентификатор кодека : A_AC3
Продолжительность : 1 ч. 55 м.
Вид битрейта : Постоянный
Битрейт : 640 Кбит/сек
Каналы : 6 каналов
Расположение каналов : Front: L C R, Side: L R, LFE
Частота : 48,0 КГц
Битовая глубина : 16 бит
Метод сжатия : С потерями
Размер потока : 527 Мбайт (7%)
Заголовок : Дубляж, Blu-ray CEE
Язык : Russian
Default : Да
Forced : Нет

Аудио #2
Идентификатор : 3
Формат : AC-3
Формат/Информация : Audio Coding 3
Расширение режима : CM (complete main)
Параметр Endianness формата : Big
Идентификатор кодека : A_AC3
Продолжительность : 1 ч. 55 м.
Вид битрейта : Постоянный
Битрейт : 640 Кбит/сек
Каналы : 6 каналов
Расположение каналов : Front: L C R, Side: L R, LFE
Частота : 48,0 КГц
Битовая глубина : 16 бит
Метод сжатия : С потерями
Размер потока : 527 Мбайт (7%)
Заголовок : Одноголосый закадровый, А. Гаврилов
Язык : Russian
Default : Нет
Forced : Нет

Аудио #3
Идентификатор : 4
Формат : AC-3
Формат/Информация : Audio Coding 3
Расширение режима : CM (complete main)
Параметр Endianness формата : Big
Идентификатор кодека : A_AC3
Продолжительность : 1 ч. 55 м.
Вид битрейта : Постоянный
Битрейт : 640 Кбит/сек
Каналы : 6 каналов
Расположение каналов : Front: L C R, Side: L R, LFE
Частота : 48,0 КГц
Битовая глубина : 16 бит
Метод сжатия : С потерями
Размер потока : 527 Мбайт (7%)
Заголовок : Оригинал
Язык : English
Default : Нет
Forced : Нет

Текст #1
Идентификатор : 5
Формат : UTF-8
Идентификатор кодека : S_TEXT/UTF8
Идентификатор кодека/Информация : UTF-8 Plain Text
Заголовок : Forced
Язык : Russian
Default : Да
Forced : Да

Текст #2
Идентификатор : 6
Формат : UTF-8
Идентификатор кодека : S_TEXT/UTF8
Идентификатор кодека/Информация : UTF-8 Plain Text
Заголовок : Full
Язык : Russian
Default : Нет
Forced : Нет

Текст #3
Идентификатор : 7
Формат : UTF-8
Идентификатор кодека : S_TEXT/UTF8
Идентификатор кодека/Информация : UTF-8 Plain Text
Заголовок : Full
Язык : English
Default : Нет
Forced : Нет

Меню
00:00:00.000 : :Los Angeles 1996: Send in the Maniac
00:02:50.211 : :A Hot Time
00:07:10.847 : :A Cold Sentence
00:11:30.522 : :2032: Lenina Lacks Stimulus
00:16:46.213 : :One Parole Hearing = 4 Mdk's
00:22:59.878 : :No Respect for the Law
00:28:39.467 : :The Governor's Problem
00:31:03.987 : :Legend of the Demolition Man
00:32:43.878 : :Wake-Up Call
00:37:45.554 : :"So Much for the Sea Shells"
00:41:26.775 : :Violence in the Hall
00:47:32.015 : :Blast From the Past
00:51:13.320 : :"Don't You Have Someone to Kill?"
00:54:35.313 : :The Chief's Plan; What All Restaurants Are
00:57:18.017 : :Dining with the Governor
01:00:17.196 : :Attack of the Scraps
01:03:16.542 : :After-Dinner Chats
01:07:41.932 : :21St Century Sex
01:14:57.326 : :A Gift for Lenina; Phoenix's Programming
01:17:39.446 : :Confronting Cocteau
01:19:54.331 : :Wasteland
01:24:09.252 : :Friendly's Manifesto
01:27:03.885 : :"Let's Bring Back the Good Old Days"
01:28:04.904 : :Unwelcome Guests
01:30:25.962 : :Pedal to the Metal
01:34:50.309 : :Unexpected Allies
01:37:10.823 : :End of the Cocteau Plan
01:41:16.904 : :Cryoprison Chaos
01:45:52.179 : :"This Is the Best Day of My Life"
01:48:42.641 : :"I Think I'm Gonna Like the Future"
x264 [info]: frame I:1411 Avg QP:16.18 size:139643
x264 [info]: frame P:38701 Avg QP:18.97 size: 70515
x264 [info]: frame B:125393 Avg QP:20.90 size: 29904
загрузка...
Правила, инструкции, FAQ!!!
Торрент  Добавлен [13 янв 2014, 20:05] Скачать торрент
Скачать торрент
[ Размер 39.25 КБ / Просмотров 12 ]

Статус  
 
Размер  7.76 ГБ
Приватный: Нет (DHT включён)
.torrent скачан  7
Как залить торрент? | Как скачать Torrent? | Как смотреть и слушать онлайн?  


     Отправить личное сообщение
   
Страница 1 из 1
Показать сообщения за:  Поле сортировки  
Начать новую тему Ответить на тему

   Похожие торренты   Автор   Ответы   Просмотры   Последнее сообщение 
В этой теме нет новых непрочитанных сообщений. Скачать торрент Разрушитель / Demolition Man (1993) HDRip | D

в форуме Фантастика, Фэнтези, Размер: 1.45 ГБ, Здоровье: 100%

Anonymous

0
59|2

38
659

13 янв 2014, 20:09

Anonymous Перейти к последнему сообщению

В этой теме нет новых непрочитанных сообщений. Скачать торрент Проверен Разрушение / Demolition (2015) BDRip | Лицензия

в форуме Драмы, Мелодрамы, Размер: 1.45 ГБ, Здоровье: 100%

Гость

0
158|24

201
317

01 окт 2016, 13:01

Гость Перейти к последнему сообщению

В этой теме нет новых непрочитанных сообщений. Скачать торрент Проверен Разрушение / Demolition (2015) BDRip 720p | Лицензия

в форуме 720p | 1080p, Размер: 4.43 ГБ, Здоровье: 100%

Гость

0
177|19

59
162

18 авг 2016, 21:47

Гость Перейти к последнему сообщению

В этой теме нет новых непрочитанных сообщений. Скачать торрент Фирма / The Firm (1993) BDRip [1080p]

в форуме 720p | 1080p, Размер: 15.77 ГБ, Здоровье: 100%

Anonymous

0
8|1

34
0

20 апр 2014, 22:00

Anonymous Перейти к последнему сообщению

В этой теме нет новых непрочитанных сообщений. Скачать торрент Проверен Путь Карлито / Carlito's Way (1993) BDRip 1080p

в форуме 720p | 1080p, Размер: 11.55 ГБ, Здоровье: 100%

Гость

0
36|16

134
20

14 апр 2015, 22:18

Гость Перейти к последнему сообщению



Сейчас этот форум просматривают: нет зарегистрированных пользователей и гости: 5


Вы не можете начинать темы
Вы не можете отвечать на сообщения
Вы не можете редактировать свои сообщения
Вы не можете удалять свои сообщения
Вы не можете добавлять вложения

Перейти:  

!ВНИМАНИЕ!
 Ресурс не предоставляет электронные версии произведений, а занимается лишь коллекционированием и каталогизацией ссылок, присылаемых и публикуемых на форуме нашими читателями. Если вы являетесь правообладателем какого-либо представленного материала и не желаете чтобы ссылка на него находилась в нашем каталоге, свяжитесь с нами и мы незамедлительно удалим её. Файлы для обмена на трекере предоставлены пользователями сайта, и администрация не несёт ответственности за их содержание. Просьба не заливать файлы, защищенные авторскими правами, а также файлы нелегального содержания!