На всех торрентах на трекере установлена скидка на скачивание в размере 100 процентов(а).
 Возможность скачивания торрента НЕ зависит от ограничений при низком ратио, низком аплоаде, требуемом ратио или требуемом аплоаде.


Начать новую тему Ответить на тему
Статистика раздачи
Размер: 5.3 ГБ | Добавлен: 12 янв 2014, 19:57 | Скачали: 0
Сидеров: 0  [0 байт/сек]    Личеров: 0  [0 байт/сек]
Пред. тема | След. тема 

Автор
Сообщение

СообщениеДобавлено: 12 янв 2014, 19:57 

Название: Мачо и ботан
Оригинальное название: 21 Jump Street
Год выхода: 2012
Жанр: боевик, комедия, криминал
Режиссер: Фил Лорд, Крис Миллер

В ролях:

Джона Хилл (Schmidt), Ченнинг Татум (Jenko), Бри Ларсон (Molly Tracey), Дэйв Франко (Eric Molson), Роб Риггл (Mr. Walters), Айс Кьюб (Captain Dickson), ДеРэй Дэвис (Domingo), Дакс Флэйм (Zack), Крис Парнелл (Mr. Gordon), Элли Кемпер (Ms. Griggs), Джэйк М. Джонсон (Principal Dadier, (в титрах: Jake Johnson)), Ник Офферман (Deputy Chief Hardy)

О фильме:
Двое новоиспеченных горе-полицейских отправляются на сверхсекретное задание. Им предстоит заново стать учениками средней школы, в которой процветает наркоторговля.





Страна: США
Студия: Columbia Pictures, Original Film, Relativity Media
Продолжительность: 01:49:37
Перевод: Профессиональный (дублированный)


Кодек: H.264
Качество: BDRip 1080p
Видео: 1920x800 (2.40:1), 23.976 fps, AVC, 6089 Kbps
Звук:
AC3, 448 Kbps, 48.0 KHz, 6 ch (RUS)
AC3, 384 Kbps, 48.0 KHz, 6 ch (ENG)
Субтитры: Russian , english (srt )


x264 [info]: frame I:1764 Avg QP:13.82 size:178894
x264 [info]: frame P:38561 Avg QP:16.46 size: 60526
x264 [info]: frame B:117379 Avg QP:19.10 size: 20078
Общее
Уникальный идентификатор : 184733541627621775361972713647705442232 (0x8AFA62CDF8026AD09A56740BB70C47B8)
Полное имя : E:торрентMacho.i.Botan.2012.BDRip-F.HD.mkv
Формат : Matroska
Версия формата : Version 2
Размер файла : 5,30 Гбайт
Продолжительность : 1 ч. 49 м.
Общий поток : 6923 Кбит/сек
Дата кодирования : UTC 2012-08-18 21:21:40
Программа кодирования : mkvmerge v5.7.0 ('The Whirlwind') built on Jul 8 2012 20:08:51
Библиотека кодирования : libebml v1.2.3 + libmatroska v1.3.0

Видео
Идентификатор : 1
Формат : AVC
Формат/Информация : Advanced Video Codec
Профиль формата : High@L4.1
Параметр CABAC формата : Да
Параметр ReFrames формата : 5 кадров
Идентификатор кодека : V_MPEG4/ISO/AVC
Продолжительность : 1 ч. 49 м.
Битрейт : 6089 Кбит/сек
Ширина : 1920 пикселей
Высота : 800 пикселей
Соотношение сторон : 2,40:1
Режим частоты кадров : Постоянный
Частота кадров : 23,976 кадра/сек
Цветовое пространство : YUV
Субдискретизация насыщенности : 4:2:0
Битовая глубина : 8 бит
Тип развёртки : Прогрессивная
Бит/(Пиксели*Кадры) : 0.165
Размер потока : 4,56 Гбайт (86%)
Библиотека кодирования : x264 core 125 r2208 d9d2288
Настройки программы : cabac=1 / ref=5 / deblock=1:-3:-3 / analyse=0x3:0x113 / me=umh / subme=10 / psy=1 / psy_rd=1.00:0.10 / mixed_ref=1 / me_range=32 / chroma_me=1 / trellis=2 / 8x8dct=1 / cqm=0 / deadzone=21,11 / fast_pskip=0 / chroma_qp_offset=1 / threads=6 / lookahead_threads=1 / sliced_threads=0 / nr=0 / decimate=1 / interlaced=0 / bluray_compat=0 / constrained_intra=0 / bframes=7 / b_pyramid=2 / b_adapt=2 / b_bias=0 / direct=3 / weightb=1 / open_gop=0 / weightp=2 / keyint=240 / keyint_min=23 / scenecut=40 / intra_refresh=0 / rc=2pass / mbtree=0 / bitrate=6089 / ratetol=1.0 / qcomp=0.80 / qpmin=4 / qpmax=51 / qpstep=4 / cplxblur=20.0 / qblur=0.5 / ip_ratio=1.40 / pb_ratio=1.30 / aq=2:0.90
Язык : English
Default : Да
Forced : Нет

Аудио #1
Идентификатор : 2
Формат : AC-3
Формат/Информация : Audio Coding 3
Расширение режима : CM (complete main)
Параметр Endianness формата : Big
Идентификатор кодека : A_AC3
Продолжительность : 1 ч. 49 м.
Вид битрейта : Постоянный
Битрейт : 448 Кбит/сек
Каналы : 6 каналов
Расположение каналов : Front: L C R, Side: L R, LFE
Частота : 48,0 КГц
Битовая глубина : 16 бит
Метод сжатия : С потерями
Размер потока : 351 Мбайт (6%)
Язык : Russian
Default : Да
Forced : Нет

Аудио #2
Идентификатор : 3
Формат : AC-3
Формат/Информация : Audio Coding 3
Расширение режима : CM (complete main)
Параметр Endianness формата : Big
Идентификатор кодека : A_AC3
Продолжительность : 1 ч. 49 м.
Вид битрейта : Постоянный
Битрейт : 384 Кбит/сек
Каналы : 6 каналов
Расположение каналов : Front: L C R, Side: L R, LFE
Частота : 48,0 КГц
Битовая глубина : 16 бит
Метод сжатия : С потерями
Размер потока : 301 Мбайт (6%)
Язык : English
Default : Нет
Forced : Нет

Текст #1
Идентификатор : 4
Формат : UTF-8
Идентификатор кодека : S_TEXT/UTF8
Идентификатор кодека/Информация : UTF-8 Plain Text
Язык : Russian
Default : Нет
Forced : Нет

Текст #2
Идентификатор : 5
Формат : UTF-8
Идентификатор кодека : S_TEXT/UTF8
Идентификатор кодека/Информация : UTF-8 Plain Text
Язык : English
Default : Нет
Forced : Нет

загрузка...
Правила, инструкции, FAQ!!!
Торрент  Добавлен [12 янв 2014, 19:57] Скачать торрент
Скачать торрент
[ Размер 27.02 КБ / Просмотров 9 ]

Статус  
 
Размер  5.3 ГБ
Приватный: Нет (DHT включён)
.torrent скачан  0
Как залить торрент? | Как скачать Torrent? | Как смотреть и слушать онлайн?  


     Отправить личное сообщение
   
Страница 1 из 1
Показать сообщения за:  Поле сортировки  
Начать новую тему Ответить на тему

   Похожие торренты   Автор   Ответы   Просмотры   Последнее сообщение 
В этой теме нет новых непрочитанных сообщений. Скачать торрент Мачо и ботан / 21 Jump Street (2012) BDRip 720p | Лицензия

в форуме 720p | 1080p, Размер: 2.35 ГБ, Здоровье: 0%

Anonymous

0
0|0

77
0

12 янв 2014, 19:52

Anonymous Перейти к последнему сообщению

В этой теме нет новых непрочитанных сообщений. Скачать торрент Мачо и ботан 2 / 22 Jump Street (2014) HDTV 1080p | Трейлер

в форуме Трейлеры и доп.материалы, Размер: 198.26 МБ, Здоровье: 100%

Anonymous

0
76|0

314
2782

23 дек 2013, 21:14

Anonymous Перейти к последнему сообщению

В этой теме нет новых непрочитанных сообщений. Скачать торрент Мачо и ботан / 21 Jump Street (2012) HDRip | Лицензия

в форуме Боевики, Размер: 1.45 ГБ, Здоровье: 0%

Anonymous

0
0|0

132
0

12 янв 2014, 19:45

Anonymous Перейти к последнему сообщению

В этой теме нет новых непрочитанных сообщений. Скачать торрент Проверен [MP4 640x268] Мачо и ботан / 21 Jump Street (2012) HDRip

в форуме Видео для смартфонов и КПК, Размер: 747.67 МБ, Здоровье: ???%

Anonymous

0
0|1

315
0

25 окт 2014, 23:31

Anonymous Перейти к последнему сообщению

В этой теме нет новых непрочитанных сообщений. Мачо и ботан 2 / 22 Jump Street (2014) WEB-DL 720p | Чистый звук

в форуме Новинки кино, Размер: 3.31 ГБ, Здоровье: 100%

Anonymous

0
316|6

353
11

30 сен 2014, 21:13

Anonymous Перейти к последнему сообщению



Сейчас этот форум просматривают: нет зарегистрированных пользователей и гости: 1


Вы не можете начинать темы
Вы не можете отвечать на сообщения
Вы не можете редактировать свои сообщения
Вы не можете удалять свои сообщения
Вы не можете добавлять вложения

Перейти:  

!ВНИМАНИЕ!
 Ресурс не предоставляет электронные версии произведений, а занимается лишь коллекционированием и каталогизацией ссылок, присылаемых и публикуемых на форуме нашими читателями. Если вы являетесь правообладателем какого-либо представленного материала и не желаете чтобы ссылка на него находилась в нашем каталоге, свяжитесь с нами и мы незамедлительно удалим её. Файлы для обмена на трекере предоставлены пользователями сайта, и администрация не несёт ответственности за их содержание. Просьба не заливать файлы, защищенные авторскими правами, а также файлы нелегального содержания!