На всех торрентах на трекере установлена скидка на скачивание в размере 100 процентов(а).
 Возможность скачивания торрента НЕ зависит от ограничений при низком ратио, низком аплоаде, требуемом ратио или требуемом аплоаде.


Начать новую тему Ответить на тему
Статистика раздачи
Размер: 9.75 ГБ | Добавлен: 12 янв 2014, 12:36 | Скачали: 0
Сидеров: 0  [0 байт/сек]    Личеров: 0  [0 байт/сек]
Пред. тема | След. тема 

Автор
Сообщение

СообщениеДобавлено: 12 янв 2014, 12:36 

Название: Вулкан
Оригинальное название: Volcano
Год выхода: 1997
Жанр: Фантастика, боевик, триллер, драма
Режиссер: Мик Джексон

В ролях: Томми Ли Джонс, Энн Хеч, Гэби Хоффманн, Дон Чидл, Жаклин Ким, Кит Дэвид, Джон Корбетт, Майкл Рисполи, Джон Кэрролл Линч, Марсело Тедфорд

О фильме:
Лос - Анджелес на своем веку достаточно повидал стихийных бедствий: землетрясений, пожаров, наводнений. Но сейчас «городу ангелов» предстоит столкнуться с самой страшной из когда - либо переживаемых им катастроф, которая грозит стереть его с лица земли.
В одном из самых населенных районов Лос - Анджелеса внезапно пришел в активное действие вулкан. Раскаленная, грозящая смертью лава уже начала выплескиваться на улицы, запруженные автомобилями…
Но, как всегда, герой появляется вовремя - на этот раз в облике мужественного офицера службы спасения в случае стихийных бедствий, который возглавляет борьбу со стихией…

Выпущено: США / Twentieth Century Fox Film Corporation, Donner/Shuler-Donner Productions, Moritz Original
Продолжительность: 01:43:51
Перевод: Дублированный, профессиональный многоголосый, авторский

Кодек: MPEG-4 AVC
Качество: BDRip 1080p
Видео: 1980x1080 23,976 fps, 11329 kbps
Звук:
Russian: AC3, 192 Kbps (2 ch) Дублированный
Russian: AC3, 448 Kbps (6 ch) Профессиональный многоголосый
Russian: AC3, 448 Kbps (6 ch) Авторский (Ю.Живов)
Ukrainian: AC3, 384 Kbps (6 ch) Профессиональный многоголосый
English: AC3, 640 Kbps (6 ch) Original
Субтитры: Russian, English
Семпл
Общее
Уникальный идентификатор : 245837989774706940624831127481238165054 (0xB8F2ACB26C170A8899CE0DF69384163E)
Полное имя : Volcano.1997.х264.BDRip.1080р.mkv
Формат : Matroska
Версия формата : Version 4 / Version 2
Размер файла : 9,75 Гбайт
Продолжительность : 1 ч. 43 м.
Общий поток : 13,4 Мбит/сек
Название фильма : ☭WIDDER☭
Дата кодирования : UTC 2014-01-12 04:14:21
Программа кодирования : mkvmerge v6.0.0 ('Coming Up For Air') built on Jan 20 2013 09:52:00
Библиотека кодирования : libebml v1.3.0 + libmatroska v1.4.0

Видео
Идентификатор : 1
Формат : AVC
Формат/Информация : Advanced Video Codec
Профиль формата : High@L4.1
Параметр CABAC формата : Да
Параметр ReFrames формата : 4 кадра
Идентификатор кодека : V_MPEG4/ISO/AVC
Продолжительность : 1 ч. 43 м.
Битрейт : 11,3 Мбит/сек
Ширина : 1920 пикселей
Высота : 1080 пикселей
Соотношение сторон : 16:9
Частота кадров : 23,976 кадра/сек
Цветовое пространство : YUV
Субдискретизация насыщенности : 4:2:0
Битовая глубина : 8 бит
Тип развёртки : Прогрессивная
Бит/(Пиксели*Кадры) : 0.228
Размер потока : 8,02 Гбайт (82%)
Заголовок : Вулкан / Volcano (1997)
Библиотека кодирования : x264 core 140 r2377 1ca7bb9
Настройки программы : cabac=1 / ref=4 / deblock=1:-3:-3 / analyse=0x3:0x133 / me=umh / subme=11 / psy=1 / psy_rd=1.00:0.00 / mixed_ref=1 / me_range=48 / chroma_me=1 / trellis=2 / 8x8dct=1 / cqm=0 / deadzone=21,11 / fast_pskip=0 / chroma_qp_offset=-2 / threads=12 / lookahead_threads=1 / sliced_threads=0 / nr=0 / decimate=1 / interlaced=0 / bluray_compat=0 / constrained_intra=0 / bframes=6 / b_pyramid=2 / b_adapt=2 / b_bias=0 / direct=3 / weightb=1 / open_gop=0 / weightp=2 / keyint=240 / keyint_min=23 / scenecut=40 / intra_refresh=0 / rc_lookahead=60 / rc=2pass / mbtree=0 / bitrate=11329 / ratetol=1.0 / qcomp=0.60 / qpmin=0 / qpmax=69 / qpstep=4 / cplxblur=20.0 / qblur=0.5 / vbv_maxrate=50000 / vbv_bufsize=62500 / nal_hrd=none / filler=0 / ip_ratio=1.40 / pb_ratio=1.30 / aq=1:0.80
Язык : English
Default : Да
Forced : Нет

Аудио #1
Идентификатор : 2
Формат : AC-3
Формат/Информация : Audio Coding 3
Расширение режима : CM (complete main)
Параметр Endianness формата : Big
Идентификатор кодека : A_AC3
Продолжительность : 1 ч. 43 м.
Вид битрейта : Постоянный
Битрейт : 192 Кбит/сек
Каналы : 2 канала
Расположение каналов : Front: L R
Частота : 48,0 КГц
Битовая глубина : 16 бит
Метод сжатия : С потерями
Размер потока : 143 Мбайт (1%)
Заголовок : AC3, 192 Kbps (2 ch) Дублированный
Язык : Russian
Default : Да
Forced : Нет

Аудио #2
Идентификатор : 3
Формат : AC-3
Формат/Информация : Audio Coding 3
Расширение режима : CM (complete main)
Параметр Endianness формата : Big
Идентификатор кодека : A_AC3
Продолжительность : 1 ч. 43 м.
Вид битрейта : Постоянный
Битрейт : 448 Кбит/сек
Каналы : 6 каналов
Расположение каналов : Front: L C R, Side: L R, LFE
Частота : 48,0 КГц
Битовая глубина : 16 бит
Метод сжатия : С потерями
Размер потока : 333 Мбайт (3%)
Заголовок : AC3, 448 Kbps (6 ch) Профессиональный многоголосый
Язык : Russian
Default : Нет
Forced : Нет

Аудио #3
Идентификатор : 4
Формат : AC-3
Формат/Информация : Audio Coding 3
Расширение режима : CM (complete main)
Параметр Endianness формата : Big
Идентификатор кодека : A_AC3
Продолжительность : 1 ч. 43 м.
Вид битрейта : Постоянный
Битрейт : 448 Кбит/сек
Каналы : 6 каналов
Расположение каналов : Front: L C R, Side: L R, LFE
Частота : 48,0 КГц
Битовая глубина : 16 бит
Метод сжатия : С потерями
Размер потока : 333 Мбайт (3%)
Заголовок : AC3, 448 Kbps (6 ch) Авторский (Ю.Живов)
Язык : Russian
Default : Нет
Forced : Нет

Аудио #4
Идентификатор : 5
Формат : AC-3
Формат/Информация : Audio Coding 3
Расширение режима : CM (complete main)
Параметр Endianness формата : Big
Идентификатор кодека : A_AC3
Продолжительность : 1 ч. 43 м.
Вид битрейта : Постоянный
Битрейт : 384 Кбит/сек
Каналы : 6 каналов
Расположение каналов : Front: L C R, Side: L R, LFE
Частота : 48,0 КГц
Битовая глубина : 16 бит
Метод сжатия : С потерями
Размер потока : 285 Мбайт (3%)
Заголовок : AC3, 384 Kbps (6 ch) Профессиональный многоголосый
Язык : Ukrainian
Default : Нет
Forced : Нет

Аудио #5
Идентификатор : 6
Формат : AC-3
Формат/Информация : Audio Coding 3
Расширение режима : CM (complete main)
Параметр Endianness формата : Big
Идентификатор кодека : A_AC3
Продолжительность : 1 ч. 43 м.
Вид битрейта : Постоянный
Битрейт : 640 Кбит/сек
Каналы : 6 каналов
Расположение каналов : Front: L C R, Side: L R, LFE
Частота : 48,0 КГц
Битовая глубина : 16 бит
Метод сжатия : С потерями
Размер потока : 476 Мбайт (5%)
Заголовок : AC3, 640 Kbps (6 ch) Original
Язык : English
Default : Нет
Forced : Нет

Текст #1
Идентификатор : 7
Формат : UTF-8
Идентификатор кодека : S_TEXT/UTF8
Идентификатор кодека/Информация : UTF-8 Plain Text
Язык : Russian
Default : Нет
Forced : Нет

Текст #2
Идентификатор : 8
Формат : UTF-8
Идентификатор кодека : S_TEXT/UTF8
Идентификатор кодека/Информация : UTF-8 Plain Text
Язык : English
Default : Нет
Forced : Нет

Меню
00:00:00.000 : en:Chapter 01
00:11:41.742 : en:Chapter 02
00:21:57.357 : en:Chapter 03
00:30:05.553 : en:Chapter 04
00:42:56.115 : en:Chapter 05
00:53:30.749 : en:Chapter 06
01:02:27.827 : en:Chapter 07
01:10:18.839 : en:Chapter 08
01:21:46.818 : en:Chapter 09
01:33:04.662 : en:Chapter 10

____________________________________________
x264 [info]: frame I:1055 Avg QP:17.38 size:209626
x264 [info]: frame P:51252 Avg QP:19.92 size: 92044
x264 [info]: frame B:97093 Avg QP:22.49 size: 39992
x264 [info]: consecutive B-frames: 7.5% 15.8% 8.0% 65.9% 1.7% 0.7% 0.5%




Релиз от:
загрузка...
Правила, инструкции, FAQ!!!
Торрент  Добавлен [12 янв 2014, 12:36] Скачать торрент
Скачать торрент
[ Размер 49.18 КБ / Просмотров 12 ]

Статус  
 
Размер  9.75 ГБ
Приватный: Нет (DHT включён)
.torrent скачан  0
Как залить торрент? | Как скачать Torrent? | Как смотреть и слушать онлайн?  


     Отправить личное сообщение
   
Страница 1 из 1
Показать сообщения за:  Поле сортировки  
Начать новую тему Ответить на тему

   Похожие торренты   Автор   Ответы   Просмотры   Последнее сообщение 
В этой теме нет новых непрочитанных сообщений. Скачать торрент Вулкан / Volcano (1997) BDRip | D, A

в форуме Фантастика, Фэнтези, Размер: 1.46 ГБ, Здоровье: 100%

Anonymous

0
24|0

26
500

12 янв 2014, 12:32

Anonymous Перейти к последнему сообщению

В этой теме нет новых непрочитанных сообщений. Скачать торрент Проверен Шакал / The Jackal (1997) BDRip 1080p | P, A

в форуме 720p | 1080p, Размер: 11.53 ГБ, Здоровье: 100%

Anonymous

0
9|2

27
124

06 июн 2014, 00:08

Anonymous Перейти к последнему сообщению

В этой теме нет новых непрочитанных сообщений. Скачать торрент Проверен Благодетель / The Rainmaker (1997) BDRip 1080p

в форуме 720p | 1080p, Размер: 12.4 ГБ, Здоровье: 100%

Anonymous

0
17|5

22
112

05 янв 2015, 22:20

Anonymous Перейти к последнему сообщению

В этой теме нет новых непрочитанных сообщений. Скачать торрент Геркулес / Hercules (1997) BDRip 1080p

в форуме Зарубежные мультфильмы (HD Video), Размер: 4.37 ГБ, Здоровье: 100%

Anonymous

0
49|3

86
29

28 янв 2014, 07:27

Anonymous Перейти к последнему сообщению

В этой теме нет новых непрочитанных сообщений. Скачать торрент Проверен Игра / The Game (1997) BDRip 1080p

в форуме 720p | 1080p, Размер: 5.77 ГБ, Здоровье: 100%

Гость

0
128|35

15
136

13 ноя 2016, 22:51

Гость Перейти к последнему сообщению



Сейчас этот форум просматривают: нет зарегистрированных пользователей и гости: 4


Вы не можете начинать темы
Вы не можете отвечать на сообщения
Вы не можете редактировать свои сообщения
Вы не можете удалять свои сообщения
Вы не можете добавлять вложения

Перейти:  

!ВНИМАНИЕ!
 Ресурс не предоставляет электронные версии произведений, а занимается лишь коллекционированием и каталогизацией ссылок, присылаемых и публикуемых на форуме нашими читателями. Если вы являетесь правообладателем какого-либо представленного материала и не желаете чтобы ссылка на него находилась в нашем каталоге, свяжитесь с нами и мы незамедлительно удалим её. Файлы для обмена на трекере предоставлены пользователями сайта, и администрация не несёт ответственности за их содержание. Просьба не заливать файлы, защищенные авторскими правами, а также файлы нелегального содержания!