На всех торрентах на трекере установлена скидка на скачивание в размере 100 процентов(а).
 Возможность скачивания торрента НЕ зависит от ограничений при низком ратио, низком аплоаде, требуемом ратио или требуемом аплоаде.


Начать новую тему Ответить на тему
Статистика раздачи
Размер: 1.45 ГБ | Добавлен: 11 янв 2014, 17:06 | Скачали: 0
Сидеров: 0  [0 байт/сек]    Личеров: 0  [0 байт/сек]
Пред. тема | След. тема 

Автор
Сообщение

СообщениеДобавлено: 11 янв 2014, 17:06 

Название: Белоснежка и охотник
Оригинальное название: Snow White and the Huntsman
Год выхода: 2012
Жанр: фэнтези, боевик, драма, приключения
Режиссер: Руперт Сандерс

В ролях: Кристен Стюарт, Крис Хемсворт, Шарлиз Терон, Сэм Клафлин, Сэм Спруэлл, Иэн МакШейн, Боб Хоскинс, Рэй Уинстон, Ник Фрост, Эдди Марсан

О фильме: Тьма приближается. Она прячется в лесах, спускается с гор, застилает небо. Никто не укроется от магического зеркала Королевы, живущей в неприступном замке, охраняемом бесчисленной армией. Но над Белоснежкой злые чары не властны. И тогда Королева отправляет Охотника, чтобы он принес ей сердце соперницы. Но очарованный Белоснежкой, он встает на ее сторону. Грядет великая битва. Лишь одна будет править.



Страна: США
Продолжительность: 02:11:33
Перевод: Дубляж


Кодек: h.264
Качество: BDRip-AVC
Видео: 1024x436 (2,35:1), 23.976 fps, 1383 kbps, 0.129 bit/pixel
Звук: 48 kHz, AC3, 2/0 (L,R) ch, 192.00 kbps
Субтитры: Russian, English, English (SDH) - вшитые отключаемые

&

Общее
Уникальный идентификатор : 234010370880852657472894887750674495597 (0xB00CC2101118E43F85FAC385C9CD386D)
Полное имя : D:Snow White and the Huntsman.2012.BDRip-AVC.mkv
Формат : Matroska
Версия формата : Version 2
Размер файла : 1,45 Гбайт
Продолжительность : 2 ч. 11 м.
Общий поток : 1573 Кбит/сек
Название фильма : Белоснежка и охотник / Snow White and the Huntsman (2012) BDRip-AVC rip by Rulya74
Дата кодирования : UTC 2012-09-23 04:54:28
Программа кодирования : mkvmerge v5.7.0 ('The Whirlwind') built on Jul 8 2012 20:08:51
Библиотека кодирования : libebml v1.2.3 + libmatroska v1.3.0

Видео
Идентификатор : 1
Формат : AVC
Формат/Информация : Advanced Video Codec
Профиль формата : High@L4.1
Параметр CABAC формата : Да
Параметр ReFrames формата : 15 кадров
Идентификатор кодека : V_MPEG4/ISO/AVC
Продолжительность : 2 ч. 11 м.
Битрейт : 1383 Кбит/сек
Ширина : 1024 пикселя
Высота : 436 пикселей
Соотношение сторон : 2,35:1
Частота кадров : 23,976 кадра/сек
Цветовое пространство : YUV
Субдискретизация насыщенности : 4:2:0
Битовая глубина : 8 бит
Тип развёртки : Прогрессивная
Бит/(Пиксели*Кадры) : 0.129
Размер потока : 1,24 Гбайт (86%)
Библиотека кодирования : x264 core 128 r2216 198a7ea
Настройки программы : cabac=1 / ref=15 / deblock=1:-2:-1 / analyse=0x3:0x113 / me=umh / subme=10 / psy=1 / psy_rd=1.00:0.08 / mixed_ref=1 / me_range=32 / chroma_me=1 / trellis=2 / 8x8dct=1 / cqm=0 / deadzone=21,11 / fast_pskip=0 / chroma_qp_offset=-3 / threads=14 / lookahead_threads=2 / sliced_threads=0 / nr=0 / decimate=1 / interlaced=0 / bluray_compat=0 / constrained_intra=0 / bframes=13 / b_pyramid=2 / b_adapt=2 / b_bias=0 / direct=3 / weightb=1 / open_gop=0 / weightp=2 / keyint=240 / keyint_min=22 / scenecut=40 / intra_refresh=0 / rc=2pass / mbtree=0 / bitrate=1383 / ratetol=1.0 / qcomp=0.60 / qpmin=10 / qpmax=51 / qpstep=4 / cplxblur=20.0 / qblur=0.5 / ip_ratio=1.40 / pb_ratio=1.30 / aq=2:1.00
Default : Да
Forced : Нет

Аудио
Идентификатор : 2
Формат : AC-3
Формат/Информация : Audio Coding 3
Расширение режима : CM (complete main)
Идентификатор кодека : A_AC3
Продолжительность : 2 ч. 11 м.
Вид битрейта : Постоянный
Битрейт : 192 Кбит/сек
Каналы : 2 канала
Расположение каналов : Front: L R
Частота : 48,0 КГц
Битовая глубина : 16 бит
Метод сжатия : С потерями
Размер потока : 181 Мбайт (12%)
Заголовок : Дубляж ( Blu-ray EUR)
Язык : Russian
Default : Да
Forced : Нет

Текст #1
Идентификатор : 3
Формат : UTF-8
Идентификатор кодека : S_TEXT/UTF8
Идентификатор кодека/Информация : UTF-8 Plain Text
Язык : Russian
Default : Нет
Forced : Нет

Текст #2
Идентификатор : 4
Формат : UTF-8
Идентификатор кодека : S_TEXT/UTF8
Идентификатор кодека/Информация : UTF-8 Plain Text
Язык : English
Default : Нет
Forced : Нет

Текст #3
Идентификатор : 5
Формат : UTF-8
Идентификатор кодека : S_TEXT/UTF8
Идентификатор кодека/Информация : UTF-8 Plain Text
Заголовок : SDH
Язык : English
Default : Нет
Forced : Нет

Меню
00:00:00.000 : en:00:00:00.000
00:05:05.055 : en:00:05:05.055
00:10:26.793 : en:00:10:26.793
00:19:48.854 : en:00:19:48.854
00:27:46.456 : en:00:27:46.456
00:32:40.458 : en:00:32:40.458
00:38:04.490 : en:00:38:04.490
00:44:02.098 : en:00:44:02.098
00:51:08.649 : en:00:51:08.649
00:58:17.869 : en:00:58:17.869
01:02:08.558 : en:01:02:08.558
01:08:57.967 : en:01:08:57.967
01:13:36.537 : en:01:13:36.537
01:16:59.073 : en:01:16:59.073
01:26:57.003 : en:01:26:57.003
01:36:30.993 : en:01:36:30.993
01:43:37.795 : en:01:43:37.795
01:49:51.460 : en:01:49:51.460
01:53:44.734 : en:01:53:44.734
02:01:50.094 : en:02:01:50.094

загрузка...
Правила, инструкции, FAQ!!!
Торрент  Добавлен [11 янв 2014, 17:06] Скачать торрент
Скачать торрент
[ Размер 14.87 КБ / Просмотров 11 ]

Статус  
 
Размер  1.45 ГБ
Приватный: Нет (DHT включён)
.torrent скачан  0
Как залить торрент? | Как скачать Torrent? | Как смотреть и слушать онлайн?  


     Отправить личное сообщение
   
Страница 1 из 1
Показать сообщения за:  Поле сортировки  
Начать новую тему Ответить на тему

   Похожие торренты   Автор   Ответы   Просмотры   Последнее сообщение 
В этой теме нет новых непрочитанных сообщений. Скачать торрент Белоснежка и охотник / Snow White and the Huntsman (2012) BDRip 720p | D | Расширенная версия

в форуме 720p | 1080p, Размер: 4.37 ГБ, Здоровье: 0%

Anonymous

0
0|0

48
1

11 янв 2014, 17:03

Anonymous Перейти к последнему сообщению

В этой теме нет новых непрочитанных сообщений. Скачать торрент Проверен Белоснежка и Охотник 2 / The Huntsman Winter's War [2016, США, фэнтези, WEB-DLRip] Dub

в форуме Фантастика, Фэнтези, Размер: 746.29 МБ, Здоровье: 100%

Гость

0
34|11

83
2

12 июл 2016, 23:52

Гость Перейти к последнему сообщению

В этой теме нет новых непрочитанных сообщений. Скачать торрент Проверен Белоснежка и Охотник 2 / The Huntsman: Winter's War (2016) WEB-DL 1080p | iTunes

в форуме 720p | 1080p, Размер: 3.88 ГБ, Здоровье: 100%

Anonymous

0
1659|53

76
656

13 июл 2016, 00:08

Anonymous Перейти к последнему сообщению

В этой теме нет новых непрочитанных сообщений. Скачать торрент Проверен Белоснежка и семь гномов / Snow White And The Seven Dwarfs (Дэвид Хэнд) [1937 г., Мультфильм, DVDRip]

в форуме Видео для смартфонов и КПК, Размер: 203.76 МБ, Здоровье: 100%

Anonymous

0
9|3

48
0

02 авг 2014, 17:02

Anonymous Перейти к последнему сообщению

В этой теме нет новых непрочитанных сообщений. Скачать торрент Проверен Джиа / Gia (1998) BDRip 720p | P2, A | Расширенная версия

в форуме 720p | 1080p, Размер: 8.33 ГБ, Здоровье: 100%

Anonymous

0
11|0

42
82

09 ноя 2014, 15:29

Anonymous Перейти к последнему сообщению



Сейчас этот форум просматривают: нет зарегистрированных пользователей и гости: 3


Вы не можете начинать темы
Вы не можете отвечать на сообщения
Вы не можете редактировать свои сообщения
Вы не можете удалять свои сообщения
Вы не можете добавлять вложения

Перейти:  

!ВНИМАНИЕ!
 Ресурс не предоставляет электронные версии произведений, а занимается лишь коллекционированием и каталогизацией ссылок, присылаемых и публикуемых на форуме нашими читателями. Если вы являетесь правообладателем какого-либо представленного материала и не желаете чтобы ссылка на него находилась в нашем каталоге, свяжитесь с нами и мы незамедлительно удалим её. Файлы для обмена на трекере предоставлены пользователями сайта, и администрация не несёт ответственности за их содержание. Просьба не заливать файлы, защищенные авторскими правами, а также файлы нелегального содержания!