На всех торрентах на трекере установлена скидка на скачивание в размере 100 процентов(а).
 Возможность скачивания торрента НЕ зависит от ограничений при низком ратио, низком аплоаде, требуемом ратио или требуемом аплоаде.


Начать новую тему Ответить на тему
Статистика раздачи
Размер: 1.46 ГБ | Добавлен: 10 янв 2014, 19:03 | Скачали: 2
Сидеров: 5  [0 байт/сек]    Личеров: 2  [0 байт/сек]
Пред. тема | След. тема 

Автор
Сообщение

СообщениеДобавлено: 10 янв 2014, 19:03 

Ульзана / Ulzana (1974) DVDRip [H.264]

Год выпуска: 1974
Производство: Германия (ГДР), СССР, Румыния | DEFA, Мосфильм , Bucaresti Film
Жанр: Приключения, вестерн
Перевод: Дублированный
Субтитры: Отсутствуют

Дата мировой премьеры: 16 мая 1974, Германия (ГДР)
Дата выхода DVD релиза: 27 августа 2002, "Icestorm Entertainment GmbH"

Режиссер: Готтфрид Кольдиц
Сценарий: Гойко Митич, Готтфрид Кольдиц
Актеры: Гойко Митич, Рената Блюме, Рольф Хоппе, Коля Рэуту, Амза Пелля, Фред Дельмаре, Альфред Штруве, Дорел Якобеску, Дину Герасим, Дан Сандулеску, Ханньо Хассе, Вернер Диссель, Фриц Мор, Пауль Берндт, Клаус Герке, Хольгер Экерт, Вальтер Викенхаузер, Ойген Альберт, Стефан Александреску, Виржил Андриеску, Михай Балас, Зигфрид Бартшат, Мирча Брязу, Джимми Константинеску, Дан Добре, Герд Элерс, Стефан Фаркас, Герд Функ, B. Gawlitzki, Виктор Койне, Харольд Мошдорф, I. Neumann-Eschrich, Манфред Отто, Герхард Рахольд, Wassili Rubzow, Джо Шорн, Maria Sierakowski-Rhinow, Ганс-Уве Вардек, Хассо Вардек, Вилфрид Зандер,

Описание фильма:
Аризона, конец сороковых годов 19-го столетия. Индейцы племени мимбреньо стали земледельцами, они построили оросительное сооружение и празднуют свой первый праздник урожая. Урожай выдался богатый, и они собираются продать излишки.
Торговцы из Тусона и белые поселенцы боятся лишиться своих прибылей -особенно же люди из "Тусонской компании", которые кладут в свой карман деньги, выделяемые правительством для снабжения индейцев, а им продают испорченное продовольствие. Они переходят в наступление и взрывают оросительное сооружение. Вождь Ульзана ранен, белые считают его погибшим и собираются загнать индейцев мимбреньо в бесплодную резервацию.
Индейцы сбегают в Мексику, в горы Сьерра Мадре, но жена Ульзаны, Леона, попадает в руки солдатам.



Продолжительность: 01:25:16
Качество видео: DVDRip

Видеокодек: MPEG-4 AVC/H.264
Битрейт видео: 2256 кбит/c
Размер кадра: 700x346@747x346
Аудиокодек: AC3 2.0
Битрейт аудио: 192 кбит/c
Дополнительно: Главы присутствуют
General
Unique ID : 217457506409516534563629281850105934264 (0xA398CAD5A72DD42EB0F37B0D61D631B8)
Complete name : D:\Ulzana_1974.DVDRip.H264.mkv
Format : Matroska
Format version : Version 4 / Version 2
File size : 1.46 GiB
Duration : 1h 25mn
Overall bit rate : 2 450 Kbps
Movie name : Ulzana_1974.DVDRip.H264
Encoded date : UTC 2014-01-06 11:00:54
Writing application : mkvmerge v6.6.0 ('The Edge Of The In Between') built on Dec 1 2013 17:55:00
Writing library : libebml v1.3.0 + libmatroska v1.4.1

Video
ID : 1
Format : AVC
Format/Info : Advanced Video Codec
Format profile :
Format settings, CABAC : Yes
Format settings, ReFrames : 10 frames
Codec ID : V_MPEG4/ISO/AVC
Duration : 1h 25mn
Bit rate : 2 256 Kbps
Width : 700 pixels
Height : 346 pixels
Display aspect ratio : 2.2:1
Original display aspect ratio : 2.2:1
Frame rate mode : Constant
Frame rate : 25.000 fps
Color space : YUV
Chroma subsampling : 4:2:0
Bit depth : 8 bits
Scan type : Progressive
Bits/(Pixel*Frame) : 0.373
Stream size : 1.32 GiB (90%)
Title : Ulzana_1974.DVDRip.H264
Writing library : x264 core 116 r2074 2641b9e
Encoding settings : cabac=1 / ref=10 / deblock=1:-2:-1 / analyse=0x3:0x133 / me=umh / subme=11 / psy=1 / psy_rd=1.00:0.05 / mixed_ref=1 / me_range=48 / chroma_me=1 / trellis=2 / 8x8dct=1 / cqm=0 / deadzone=21,11 / fast_pskip=0 / chroma_qp_offset=-3 / threads=6 / sliced_threads=0 / nr=0 / decimate=1 / interlaced=0 / bluray_compat=0 / constrained_intra=0 / bframes=9 / b_pyramid=2 / b_adapt=2 / b_bias=0 / direct=3 / weightb=1 / open_gop=0 / weightp=2 / keyint=250 / keyint_min=25 / scenecut=40 / intra_refresh=0 / rc_lookahead=80 / rc=2pass / mbtree=1 / bitrate=2256 / ratetol=1.0 / qcomp=0.60 / qpmin=0 / qpmax=69 / qpstep=4 / cplxblur=20.0 / qblur=0.5 / ip_ratio=1.40 / aq=2:0.90
Default : Yes
Forced : No
Color primaries : BT.709
Transfer characteristics : BT.709
Matrix coefficients : BT.709

Audio
ID : 2
Format : AC-3
Format/Info : Audio Coding 3
Mode extension : CM (complete main)
Format settings, Endianness : Big
Codec ID : A_AC3
Duration : 1h 25mn
Bit rate mode : Constant
Bit rate : 192 Kbps
Channel(s) : 2 channels
Channel positions : Front: L R
Sampling rate : 48.0 KHz
Bit depth : 16 bits
Compression mode : Lossy
Stream size : 117 MiB (8%)
Title : Профессиональный (полное дублирование)
Language : Russian
Default : Yes
Forced : No

Menu
00:00:00.000 : :Chapter 01
00:04:15.000 : :Chapter 02
00:14:15.000 : :Chapter 03
00:24:15.000 : :Chapter 04
00:34:15.000 : :Chapter 05
00:44:15.000 : :Chapter 06
00:54:15.000 : :Chapter 07
01:04:15.000 : :Chapter 08
01:14:15.000 : :Chapter 09
Скриншоты:

загрузка...
Правила, инструкции, FAQ!!!
Торрент  Добавлен [10 янв 2014, 19:03] Скачать торрент
Скачать торрент
[ Размер 15.38 КБ / Просмотров 19 ]

Статус  
 
Размер  1.46 ГБ
Приватный: Нет (DHT включён)
.torrent скачан  2
Как залить торрент? | Как скачать Torrent? | Как смотреть и слушать онлайн?  


     Отправить личное сообщение
   
Страница 1 из 1
Показать сообщения за:  Поле сортировки  
Начать новую тему Ответить на тему

   Похожие торренты   Автор   Ответы   Просмотры   Последнее сообщение 
В этой теме нет новых непрочитанных сообщений. Скачать торрент Проверен Несовершеннолетняя / La minorenne (1974) DVDRip | L1

в форуме Драмы, Мелодрамы, Размер: 1.36 ГБ, Здоровье: 100%

Гость

0
97|93

156
98

04 май 2015, 20:12

Гость Перейти к последнему сообщению

В этой теме нет новых непрочитанных сообщений. Скачать торрент Бронзовая птица (1974) DVDRip

в форуме Детское, Семейное кино, Размер: 1.45 ГБ, Здоровье: 100%

Anonymous

0
58|3

129
16

09 мар 2014, 21:28

Anonymous Перейти к последнему сообщению

В этой теме нет новых непрочитанных сообщений. Скачать торрент Проверен Сладкий фильм / Sweet Movie (1974) DVDRip | P1

в форуме Драмы, Мелодрамы, Размер: 1.46 ГБ, Здоровье: 100%

Anonymous

0
30|0

86
5

16 сен 2014, 19:01

Anonymous Перейти к последнему сообщению

В этой теме нет новых непрочитанных сообщений. Скачать торрент Проверен Эмиль из Леннеберги / Emil i Lönneberga (1-13 из 13 серий) (1974) DVDRip

в форуме Детское, Семейное кино, Размер: 2.88 ГБ, Здоровье: 100%

Anonymous

0
16|2

84
0

09 авг 2014, 21:28

Anonymous Перейти к последнему сообщению

В этой теме нет новых непрочитанных сообщений. Скачать торрент Проверен Сборник мультфильмов Александры Снежко-Блоцкой - Полная коллекция (1947-1974) DVDRip

в форуме Отечественные мультфильмы, Размер: 6.61 ГБ, Здоровье: 100%

Гость

0
29|7

71
9

22 июн 2016, 22:44

Гость Перейти к последнему сообщению



Сейчас этот форум просматривают: нет зарегистрированных пользователей и гости: 4


Вы не можете начинать темы
Вы не можете отвечать на сообщения
Вы не можете редактировать свои сообщения
Вы не можете удалять свои сообщения
Вы не можете добавлять вложения

Перейти:  

!ВНИМАНИЕ!
 Ресурс не предоставляет электронные версии произведений, а занимается лишь коллекционированием и каталогизацией ссылок, присылаемых и публикуемых на форуме нашими читателями. Если вы являетесь правообладателем какого-либо представленного материала и не желаете чтобы ссылка на него находилась в нашем каталоге, свяжитесь с нами и мы незамедлительно удалим её. Файлы для обмена на трекере предоставлены пользователями сайта, и администрация не несёт ответственности за их содержание. Просьба не заливать файлы, защищенные авторскими правами, а также файлы нелегального содержания!