На всех торрентах на трекере установлена скидка на скачивание в размере 100 процентов(а).
 Возможность скачивания торрента НЕ зависит от ограничений при низком ратио, низком аплоаде, требуемом ратио или требуемом аплоаде.


Начать новую тему Ответить на тему
Статистика раздачи
Размер: 5.12 ГБ | Добавлен: 10 янв 2014, 15:41 | Скачали: 0
Сидеров: 0  [0 байт/сек]    Личеров: 0  [0 байт/сек]
Пред. тема | След. тема 

Автор
Сообщение

СообщениеДобавлено: 10 янв 2014, 15:41 


"ГОНКА"




Информация о фильме:
Название: Гонка
Оригинальное название: Rush
Год выхода: 2013
Жанр: боевик, драма, биография, спорт
Режиссер: Рон Ховард
В ролях: Крис Хемсворт, Даниэль Брюль, Оливия Уайлд, Александра Мария Лара, Пьерфранческо Фавино, Дэвид Колдер, Натали Дормер, Стефен Мэнгэн, Кристиан МакКэй, Алистэр Петри и др.


Описание фильма:
70-е годы XX века. Золотое время «Формулы-1»: обтекаемые формы гоночных машин, брутальные на треке и ранимые в обычной жизни гонщики, сексуальные поклонницы, литры шампанского на финише для победителя… Два непримиримых соперника в истории гонок — обаятельный плейбой-англичанин Джеймс Хант и дисциплинированный перфекционист-австриец Ники Лауда — доводят себя до предела физической и психологической выносливости ради триумфа на трассе. Для них нет легких путей к победе и права на ошибку. Единственный промах гонщикам может стоить карьеры и даже жизни.



Страна: США, Германия, Великобритания
Продолжительность: 02:02:42
Перевод: Профессиональный, дублированный
- Чистый звук



Информация о файле:
Кодек: H.264/MPEG-4 AVC
Формат: MKV
Качество: BDRip 720p
Видео: ~ 5050 kbps, 1280x534, 23,976 fps
Аудио RUS: AC3, 48.0 KHz, 2 ch, 128 kbps
Аудио ENG: DTS, 48.0 KHz, 6 ch, 768 kbps
Субтитры: нет




Общее
Уникальный идентификатор : 244482767068897869300188210257812314887 (0xB7EDAB0F0DF61F3597019528D74CDB07)
Полное имя : Rush.2013.BluRay.720p.DTS.x264-CHD.mkv
Формат : Matroska
Версия формата : Version 2
Размер файла : 5,12 Гбайт
Продолжительность : 2 ч. 2 м.
Общий поток : 5970 Кбит/сек
Название фильма : Rush.2013.BluRay.720p.DTS.x264-CHD
Дата кодирования : UTC 2014-01-10 09:44:05
Программа кодирования : mkvmerge v6.6.0 ('The Edge Of The In Between') built on Dec 1 2013 17:55:00
Библиотека кодирования : libebml v1.3.0 + libmatroska v1.4.1

Видео
Идентификатор : 1
Формат : AVC
Формат/Информация : Advanced Video Codec
Профиль формата : High@L4.1
Параметр CABAC формата : Да
Параметр ReFrames формата : 11 кадров
Идентификатор кодека : V_MPEG4/ISO/AVC
Битрейт : 5074 Кбит/сек
Ширина : 1280 пикселей
Высота : 534 пикселя
Соотношение сторон : 2,40:1
Режим частоты кадров : Переменный
Частота кадров в оригинале : 23,976 кадра/сек
Цветовое пространство : YUV
Субдискретизация насыщенности : 4:2:0
Битовая глубина : 8 бит
Тип развёртки : Прогрессивная
Бит/(Пиксели*Кадры) : 0.310
Библиотека кодирования : x264 core 138 r2356 a1d3d17
Настройки программы : cabac=1 / ref=11 / deblock=1:-3:-3 / analyse=0x3:0x113 / me=umh / subme=10 / psy=1 / psy_rd=1.00:0.05 / mixed_ref=1 / me_range=32 / chroma_me=1 / trellis=2 / 8x8dct=1 / cqm=0 / deadzone=21,11 / fast_pskip=0 / chroma_qp_offset=-2 / threads=18 / lookahead_threads=1 / sliced_threads=0 / nr=0 / decimate=1 / interlaced=0 / bluray_compat=0 / constrained_intra=0 / bframes=4 / b_pyramid=2 / b_adapt=2 / b_bias=0 / direct=3 / weightb=1 / open_gop=0 / weightp=2 / keyint=250 / keyint_min=23 / scenecut=40 / intra_refresh=0 / rc=2pass / mbtree=0 / bitrate=5074 / ratetol=1.0 / qcomp=0.70 / qpmin=0 / qpmax=69 / qpstep=4 / cplxblur=20.0 / qblur=0.5 / ip_ratio=1.40 / pb_ratio=1.30 / aq=2:0.80
Язык : English
Default : Да
Forced : Нет

Аудио #1
Идентификатор : 2
Формат : AC-3
Формат/Информация : Audio Coding 3
Расширение режима : CM (complete main)
Параметр Endianness формата : Big
Идентификатор кодека : A_AC3
Продолжительность : 2 ч. 2 м.
Вид битрейта : Постоянный
Битрейт : 128 Кбит/сек
Каналы : 2 канала
Расположение каналов : Front: L R
Частота : 48,0 КГц
Битовая глубина : 16 бит
Метод сжатия : С потерями
Размер потока : 112 Мбайт (2%)
Язык : Russian
Default : Да
Forced : Нет

Аудио #2
Идентификатор : 3
Формат : DTS
Формат/Информация : Digital Theater Systems
Режим : 16
Параметр Endianness формата : Big
Идентификатор кодека : A_DTS
Продолжительность : 2 ч. 2 м.
Вид битрейта : Постоянный
Битрейт : 768 Кбит/сек
Каналы : 6 каналов
Расположение каналов : Front: L C R, Side: L R, LFE
Частота : 48,0 КГц
Битовая глубина : 24 бит
Метод сжатия : С потерями
Размер потока : 674 Мбайт (13%)
Заголовок : English DTS 5.1 768Kbps
Язык : English
Default : Нет
Forced : Нет

Меню
00:00:00.000 : en:00:00:00.000
00:12:17.028 : en:00:12:17.028
00:21:58.150 : en:00:21:58.150
00:28:46.725 : en:00:28:46.725
00:40:03.192 : en:00:40:03.192
00:48:00.211 : en:00:48:00.211
00:59:03.874 : en:00:59:03.874
01:05:39.769 : en:01:05:39.769
01:19:03.948 : en:01:19:03.948
01:29:31.366 : en:01:29:31.366
01:42:21.635 : en:01:42:21.635
01:46:42.396 : en:01:46:42.396

загрузка...
Правила, инструкции, FAQ!!!
Торрент  Добавлен [10 янв 2014, 15:41] Скачать торрент
Скачать торрент
[ Размер 26.09 КБ / Просмотров 9 ]

Статус  
 
Размер  5.12 ГБ
Приватный: Нет (DHT включён)
.torrent скачан  0
Как залить торрент? | Как скачать Torrent? | Как смотреть и слушать онлайн?  


     Отправить личное сообщение
   
Страница 1 из 1
Показать сообщения за:  Поле сортировки  
Начать новую тему Ответить на тему

   Похожие торренты   Автор   Ответы   Просмотры   Последнее сообщение 
В этой теме нет новых непрочитанных сообщений. Скачать торрент Гонка / Rush (2013) HDRip | Чистый звук

в форуме Боевики, Размер: 1.46 ГБ, Здоровье: 0%

Anonymous

0
0|0

32
0

10 янв 2014, 15:38

Anonymous Перейти к последнему сообщению

В этой теме нет новых непрочитанных сообщений. Скачать торрент Гонка / Rush (Рон Ховард / Ron Howard) [2013, США, Германия, Великобритания, спорт, драма, биография, DVDRip] Dub (Звук с TS)

в форуме Драмы, Мелодрамы, Размер: 1.37 ГБ, Здоровье: 0%

Anonymous

0
0|0

34
0

05 янв 2014, 22:43

Anonymous Перейти к последнему сообщению

В этой теме нет новых непрочитанных сообщений. 47 ронинов / 47 Ronin (2013) BDRip 720p | Чистый звук

в форуме Новинки кино, Размер: 5.67 ГБ, Здоровье: 100%

Anonymous

0
337|1

131
4202

20 мар 2014, 20:12

Anonymous Перейти к последнему сообщению

В этой теме нет новых непрочитанных сообщений. Скачать торрент Проверен Снова 16 / 16 ans ou presque (2013) BDRip 720p | D | Чистый звук

в форуме 720p | 1080p, Размер: 4.48 ГБ, Здоровье: 0%

Anonymous

0
0|0

16
0

20 май 2014, 09:30

Anonymous Перейти к последнему сообщению

В этой теме нет новых непрочитанных сообщений. Скачать торрент Starперцы / Last Vegas (2013) BDRip 720p | Чистый звук

в форуме 720p | 1080p, Размер: 6.39 ГБ, Здоровье: 0%

Anonymous

0
0|0

32
0

17 фев 2014, 22:09

Anonymous Перейти к последнему сообщению



Сейчас этот форум просматривают: нет зарегистрированных пользователей и гости: 3


Вы не можете начинать темы
Вы не можете отвечать на сообщения
Вы не можете редактировать свои сообщения
Вы не можете удалять свои сообщения
Вы не можете добавлять вложения

Перейти:  

!ВНИМАНИЕ!
 Ресурс не предоставляет электронные версии произведений, а занимается лишь коллекционированием и каталогизацией ссылок, присылаемых и публикуемых на форуме нашими читателями. Если вы являетесь правообладателем какого-либо представленного материала и не желаете чтобы ссылка на него находилась в нашем каталоге, свяжитесь с нами и мы незамедлительно удалим её. Файлы для обмена на трекере предоставлены пользователями сайта, и администрация не несёт ответственности за их содержание. Просьба не заливать файлы, защищенные авторскими правами, а также файлы нелегального содержания!