На всех торрентах на трекере установлена скидка на скачивание в размере 100 процентов(а).
 Возможность скачивания торрента НЕ зависит от ограничений при низком ратио, низком аплоаде, требуемом ратио или требуемом аплоаде.


Начать новую тему Ответить на тему
Статистика раздачи
Размер: 2.18 ГБ | Добавлен: 08 янв 2014, 22:44 | Скачали: 39
Сидеров: 16  [0 байт/сек]    Личеров: 1  [0 байт/сек]
Пред. тема | След. тема 

Автор
Сообщение

СообщениеДобавлено: 08 янв 2014, 22:44 

Без чувств / Senseless (1998) BDRip [H.264/720р-LQ]

«Суперсредство ... с побочными эффектами»

Год выпуска: 1998
Жанр: Мелодрама, Комедия
Производство: США/Miramax Films, Dimension Films, Mandeville Films, Gold/Miller Productions

Описание фильма:
Бедный студент Дэррил Уизерспун трудится на четырех работах, но денег на оплату счетов всё равно не хватает. В надежде добыть еще немного средств Дэррил соглашается принять участие в сомнительном медицинском эксперименте. Молодой человек становится чуть ли не супергероем, но неожиданно о себе дают знать странные побочные эффекты…

Режиссер: Пенелопа Сфирис
Сценарий: Грег Эрб, Крэйг Мазин
Продюсер: Дэвид Хоберман, Терри Остин, Альберт Бэверидж
Актеры: Марлон Уайанс, Дэвид Спейд, Мэттью Лиллард, Тамара Тейлор, Брэд Дуриф, Рип Торн, Эстер Скотт, Дебра Джо Рапп, Марк Кристофер Лоуренс, Джон Ингл

Продолжительность: 01:33:21
Качество видео: BDRip
Перевод: Многоголосый закадровый, СТС



Дата мировой премьеры: 20 февраля 1998
Дата выхода DVD релиза: 16 декабря 2008, «West Video»

Видеокодек: MPEG-4 AVC/H.264
Битрейт видео: ~3155 Кбит/сек
Размер кадра: 1280x720
Аудиокодек: AC3 2.0
Битрейт аудио: 192 Кбит/сек
Он заснул и прослушал важную информацию о том препарате, который согласился протестировать на себе совершенно новый препарат. Но он пойдёт на все, так как ему срочно нужны деньги, хоть какие-нибудь… И это все приводит к серьезным последствиям, которые, в свою очередь, создают ряд таких интересных, удивительных и нелепых ситуаций, которые не могут не рассмешить. Вся череда событий и смешна и немного печальна, ведь если задуматься о бедности главного героя, об условиях, в которых он живет и его семья…
Но это если задуматься. А так — нужно смотреть и наслаждаться немного жестким и своеобразным юмором, смеяться и расслабляться.
Главное, что сняли на редкость качественную не тупую молодёжную американскую комедию, которую посмотришь и еще не раз вернешься, чтобы еще пересмотреть.

10 из 10
Общее
Уникальный идентификатор : 202103812865462175458426067878645700778 (0x980BC74C402B7A4897DF43748B2998AA)
Полное имя : H:\Downloads\Без чувств.mkv
Формат : Matroska
Размер файла : 2,18 Гбайт
Продолжительность : 1 ч. 33 м.
Общий поток : 3347 Кбит/сек
Название фильма : Без чувств / Senseless (1998)
Дата кодирования : UTC 2013-07-16 09:46:47
Программа кодирования : mkvmerge v6.0.0 ('Coming Up For Air') built on Jan 20 2013 09:52:00
Библиотека кодирования : libebml v1.3.0 + libmatroska v1.4.0

Видео
Идентификатор : 1
Формат : AVC
Формат/Информация : Advanced Video Codec
Профиль формата :
Параметр CABAC формата : Да
Параметр ReFrames формата : 8 кадров
Идентификатор кодека : V_MPEG4/ISO/AVC
Продолжительность : 1 ч. 33 м.
Битрейт : 3155 Кбит/сек
Ширина : 1280 пикс.
Высота : 720 пикс.
Соотношение сторон : 16:9
Частота кадров : 23,976 кадр/сек
Цветовое пространство : YUV
Подвыборка цветности : 4:2:0
Битовая глубина : 8 бит
Тип развёртки : Прогрессивная
Бит/(Пиксели*Кадры) : 0.143
Размер потока : 2,01 Гбайт (92%)
Заголовок : Senseless
Библиотека кодирования : x264 core 125 r2208 d9d2288
Настройки программы : cabac=1 / ref=8 / deblock=1:-1:-1 / analyse=0x3:0x133 / me=umh / subme=9 / psy=1 / psy_rd=1.00:0.10 / mixed_ref=1 / me_range=32 / chroma_me=1 / trellis=2 / 8x8dct=1 / cqm=0 / deadzone=21,11 / fast_pskip=0 / chroma_qp_offset=-3 / threads=6 / lookahead_threads=1 / sliced_threads=0 / nr=0 / decimate=1 / interlaced=0 / bluray_compat=0 / constrained_intra=0 / bframes=3 / b_pyramid=2 / b_adapt=2 / b_bias=0 / direct=3 / weightb=1 / open_gop=0 / weightp=2 / keyint=250 / keyint_min=25 / scenecut=40 / intra_refresh=0 / rc_lookahead=60 / rc=2pass / mbtree=1 / bitrate=3155 / ratetol=1.0 / qcomp=0.60 / qpmin=10 / qpmax=51 / qpstep=4 / cplxblur=20.0 / qblur=0.5 / ip_ratio=1.40 / aq=1:1.00
Язык : English

Аудио
Идентификатор : 2
Формат : AC-3
Формат/Информация : Audio Coding 3
Расширение режима : CM (complete main)
Идентификатор кодека : A_AC3
Продолжительность : 1 ч. 33 м.
Вид битрейта : Постоянный
Битрейт : 192 Кбит/сек
Каналы : 2 канала
Расположение каналов : Front: L R
Частота : 48,0 КГц
Битовая глубина : 16 бит
Метод сжатия : С потерями
Размер потока : 128 Мбайт (6%)
Заголовок : Многоголосый закадровый, СТС
Язык : Russian
Скриншоты:


загрузка...
Правила, инструкции, FAQ!!!
Торрент  Добавлен [08 янв 2014, 22:44] Скачать торрент
Скачать торрент
[ Размер 11.71 КБ / Просмотров 15 ]

Статус  
 
Размер  2.18 ГБ
Приватный: Нет (DHT включён)
.torrent скачан  39
Как залить торрент? | Как скачать Torrent? | Как смотреть и слушать онлайн?  


     Отправить личное сообщение
   
Страница 1 из 1
Показать сообщения за:  Поле сортировки  
Начать новую тему Ответить на тему

   Похожие торренты   Автор   Ответы   Просмотры   Последнее сообщение 
В этой теме нет новых непрочитанных сообщений. Скачать торрент Проверен Для Чувств / Forsenses (2009) BDRip 1080p

в форуме Клипы (HD-Video), Размер: 6.52 ГБ, Здоровье: 100%

Гость

0
128|8

195
12

17 апр 2016, 22:06

Гость Перейти к последнему сообщению

В этой теме нет новых непрочитанных сообщений. Скачать торрент Проверен Для Чувств 2 / Forsenses II (2011) BDRip 1080p

в форуме Клипы (HD-Video), Размер: 6.85 ГБ, Здоровье: 100%

Гость

0
139|5

266
12

17 апр 2016, 22:07

Гость Перейти к последнему сообщению

В этой теме нет новых непрочитанных сообщений. Скачать торрент Проверен Добыча / La proie (2011) BDRip 720р | L1, A

в форуме 720p | 1080p, Размер: 3.85 ГБ, Здоровье: 100%

Anonymous

0
97|35

53
401

15 сен 2014, 08:39

Anonymous Перейти к последнему сообщению

В этой теме нет новых непрочитанных сообщений. Скачать торрент Проверен Спартак / Spartacus (1960) BDRip [H.264/720р-LQ]

в форуме 720p | 1080p, Размер: 4.27 ГБ, Здоровье: 100%

Гость

0
32|11

72
0

11 май 2015, 00:49

Гость Перейти к последнему сообщению

В этой теме нет новых непрочитанных сообщений. Скачать торрент Проверен Верные друзья (1954) BDRip [H.264/720р-LQ]

в форуме 720p | 1080p, Размер: 2.18 ГБ, Здоровье: 100%

Anonymous

0
22|2

58
0

05 июл 2014, 23:36

Anonymous Перейти к последнему сообщению



Сейчас этот форум просматривают: нет зарегистрированных пользователей и гости: 3


Вы не можете начинать темы
Вы не можете отвечать на сообщения
Вы не можете редактировать свои сообщения
Вы не можете удалять свои сообщения
Вы не можете добавлять вложения

Перейти:  

!ВНИМАНИЕ!
 Ресурс не предоставляет электронные версии произведений, а занимается лишь коллекционированием и каталогизацией ссылок, присылаемых и публикуемых на форуме нашими читателями. Если вы являетесь правообладателем какого-либо представленного материала и не желаете чтобы ссылка на него находилась в нашем каталоге, свяжитесь с нами и мы незамедлительно удалим её. Файлы для обмена на трекере предоставлены пользователями сайта, и администрация не несёт ответственности за их содержание. Просьба не заливать файлы, защищенные авторскими правами, а также файлы нелегального содержания!