На всех торрентах на трекере установлена скидка на скачивание в размере 100 процентов(а).
 Возможность скачивания торрента НЕ зависит от ограничений при низком ратио, низком аплоаде, требуемом ратио или требуемом аплоаде.


Начать новую тему Ответить на тему
Статистика раздачи
Размер: 1.37 ГБ | Добавлен: 08 янв 2014, 19:34 | Скачали: 0
Сидеров: 0  [0 байт/сек]    Личеров: 0  [0 байт/сек]
Пред. тема | След. тема 

Автор
Сообщение

СообщениеДобавлено: 08 янв 2014, 19:34 

Название: О, женщины!
Оригинальное название: Fallo!
Год выхода: 2003
Жанр: драма, мелодрама
Режиссер: Тинто Брасс

В ролях: Сара Косми, Массимилиано Каролетти, Уильям Де Вито, Гульельмо Ару, Сильвия Росси, Федерика Томмази, Марио Пароди, Андреа Нобили, Раффаелла Понцо, Стефано Гандольфо...

О фильме: Шесть комедийных эротических эпизодов о влюбленных парах, наскучивших друг другу…



Страна: Италия
Продолжительность: 01:28:53
Перевод: Профессиональный (многоголосый закадровый), Оригинал (Итальянский)


Кодек: x.264
Качество: BDRip-AVC
Видео: 928x522 (16:9), 23.976 fps, 1824 kbps, 0.157 bit/pixel
Аудио #1: 48 kHz, AC3 Dolby Digital, 2 ch, ~192.00 kbps | Русский
Аудио #2: 48 kHz, AC3 Dolby Digital, 2 ch, ~192.00 kbps | Итальянский
Субтитры: Русские (отключаемые)

&

Общее
Уникальный идентификатор : 219956349745875253109415140122689653411 (0xA57A0D52B6D915C399866C9EF5A1CAA3)
Полное имя : D:TorrentFallo!.2003.BDRip-AVC.mkv
Формат : Matroska
Версия формата : Version 4 / Version 2
Размер файла : 1,37 Гбайт
Продолжительность : 1 ч. 28 м.
Общий поток : 2210 Кбит/сек
Название фильма : О, женщины! / Fallo! (2003) BDRip-AVC rip by Rulya74
Дата кодирования : UTC 2014-01-08 15:09:33
Программа кодирования : mkvmerge v6.5.0 ('Isn't she lovely') built on Oct 20 2013 12:50:05
Библиотека кодирования : libebml v1.3.0 + libmatroska v1.4.1

Видео
Идентификатор : 1
Формат : AVC
Формат/Информация : Advanced Video Codec
Профиль формата : High@L4.1
Параметр CABAC формата : Да
Параметр ReFrames формата : 11 кадров
Идентификатор кодека : V_MPEG4/ISO/AVC
Продолжительность : 1 ч. 28 м.
Битрейт : 1824 Кбит/сек
Ширина : 928 пикселей
Высота : 522 пикселя
Соотношение сторон : 16:9
Режим частоты кадров : Постоянный
Частота кадров : 23,976 кадра/сек
Цветовое пространство : YUV
Субдискретизация насыщенности : 4:2:0
Битовая глубина : 8 бит
Тип развёртки : Прогрессивная
Бит/(Пиксели*Кадры) : 0.157
Размер потока : 1,11 Гбайт (81%)
Библиотека кодирования : x264 core 138 r2358 9e941d1
Настройки программы : cabac=1 / ref=11 / deblock=1:-3:-2 / analyse=0x3:0x2 / me=umh / subme=11 / psy=1 / psy_rd=1.02:0.08 / mixed_ref=1 / me_range=48 / chroma_me=1 / trellis=2 / 8x8dct=1 / cqm=0 / deadzone=21,11 / fast_pskip=0 / chroma_qp_offset=-3 / threads=4 / lookahead_threads=1 / sliced_threads=0 / nr=0 / decimate=1 / interlaced=0 / bluray_compat=0 / constrained_intra=0 / bframes=7 / b_pyramid=2 / b_adapt=1 / b_bias=0 / direct=3 / weightb=1 / open_gop=0 / weightp=2 / keyint=240 / keyint_min=23 / scenecut=40 / intra_refresh=0 / rc_lookahead=40 / rc=2pass / mbtree=1 / bitrate=1824 / ratetol=1.0 / qcomp=0.60 / qpmin=0 / qpmax=69 / qpstep=4 / cplxblur=20.0 / qblur=0.5 / vbv_maxrate=62500 / vbv_bufsize=78125 / nal_hrd=none / ip_ratio=1.40 / aq=1:1.00
Default : Да
Forced : Нет

Аудио #1
Идентификатор : 2
Формат : AC-3
Формат/Информация : Audio Coding 3
Расширение режима : CM (complete main)
Параметр Endianness формата : Big
Идентификатор кодека : A_AC3
Продолжительность : 1 ч. 28 м.
Вид битрейта : Постоянный
Битрейт : 192 Кбит/сек
Каналы : 2 канала
Расположение каналов : Front: L R
Частота : 48,0 КГц
Битовая глубина : 16 бит
Метод сжатия : С потерями
Размер потока : 122 Мбайт (9%)
Заголовок : Профессиональный (многоголосый закадровый)
Язык : Russian
Default : Да
Forced : Нет

Аудио #2
Идентификатор : 3
Формат : AC-3
Формат/Информация : Audio Coding 3
Расширение режима : CM (complete main)
Параметр Endianness формата : Big
Идентификатор кодека : A_AC3
Продолжительность : 1 ч. 28 м.
Вид битрейта : Постоянный
Битрейт : 192 Кбит/сек
Каналы : 2 канала
Расположение каналов : Front: L R
Частота : 48,0 КГц
Битовая глубина : 16 бит
Метод сжатия : С потерями
Размер потока : 122 Мбайт (9%)
Заголовок : Оригинал
Язык : Italian
Default : Нет
Forced : Нет

Текст
Идентификатор : 4
Формат : UTF-8
Идентификатор кодека : S_TEXT/UTF8
Идентификатор кодека/Информация : UTF-8 Plain Text
Язык : Russian
Default : Да
Forced : Нет

Меню
00:00:00.000 : :Chapter 01
00:18:54.550 : :Chapter 02
00:30:38.795 : :Chapter 03
00:42:17.243 : :Chapter 04
00:52:18.760 : :Chapter 05
01:12:54.244 : :Chapter 06
01:28:53.286 : :Chapter 07

загрузка...
Правила, инструкции, FAQ!!!
Торрент  Добавлен [08 янв 2014, 19:34] Скачать торрент
Скачать торрент
[ Размер 14.13 КБ / Просмотров 9 ]

Статус  
 
Размер  1.37 ГБ
Приватный: Нет (DHT включён)
.torrent скачан  0
Как залить торрент? | Как скачать Torrent? | Как смотреть и слушать онлайн?  


     Отправить личное сообщение
   
Страница 1 из 1
Показать сообщения за:  Поле сортировки  
Начать новую тему Ответить на тему

   Похожие торренты   Автор   Ответы   Просмотры   Последнее сообщение 
В этой теме нет новых непрочитанных сообщений. Скачать торрент Проверен Книжная серия | О чем мечтают женщины. О чем говорят женщины (14 книг) [2011-2012] [FB2]

в форуме Многоавторские сборники, Размер: 12.94 МБ, Здоровье: 27%

Anonymous

0
15|55

145
3

18 авг 2014, 14:35

Anonymous Перейти к последнему сообщению

В этой теме нет новых непрочитанных сообщений. Скачать торрент Проверен Мэри Спиллейн - Имидж женщины. Пособие для преуспевающей женщины [1998, DjVu, RUS]

в форуме Мода. Стиль. Этикет, Размер: 1.78 МБ, Здоровье: 100%

Anonymous

0
32|2

37
4

16 фев 2016, 21:41

Anonymous Перейти к последнему сообщению

В этой теме нет новых непрочитанных сообщений. Скачать торрент Q: Загадка женщины / Q (2011) BDRip-AVC 720p | Uncut version

в форуме 720p | 1080p, Размер: 2.49 ГБ, Здоровье: 100%

Anonymous

0
12|0

129
5

18 фев 2014, 07:58

Anonymous Перейти к последнему сообщению

В этой теме нет новых непрочитанных сообщений. Скачать торрент Проверен Беннет Д. - Звезды, женщина, секс. Настольная книга каждой женщины по астрологии и психологии [2003, PDF, RUS]

в форуме Астрология, Размер: 71.3 МБ, Здоровье: 0%

Anonymous

0
0|0

15
1

11 сен 2016, 23:07

Anonymous Перейти к последнему сообщению

В этой теме нет новых непрочитанных сообщений. Скачать торрент Проверен [iPod Audiobook]Бриза Оксана, Эйтвин Георгий- Имидж деловой женщины [Урванцева У., 2003, 51 kbps]

в форуме Аудиокниги (AAC, ALAC), Размер: 242.74 МБ, Здоровье: 0%

Anonymous

0
0|0

0
0

28 авг 2016, 15:37

Anonymous Перейти к последнему сообщению



Сейчас этот форум просматривают: нет зарегистрированных пользователей и гости: 4


Вы не можете начинать темы
Вы не можете отвечать на сообщения
Вы не можете редактировать свои сообщения
Вы не можете удалять свои сообщения
Вы не можете добавлять вложения

Перейти:  

!ВНИМАНИЕ!
 Ресурс не предоставляет электронные версии произведений, а занимается лишь коллекционированием и каталогизацией ссылок, присылаемых и публикуемых на форуме нашими читателями. Если вы являетесь правообладателем какого-либо представленного материала и не желаете чтобы ссылка на него находилась в нашем каталоге, свяжитесь с нами и мы незамедлительно удалим её. Файлы для обмена на трекере предоставлены пользователями сайта, и администрация не несёт ответственности за их содержание. Просьба не заливать файлы, защищенные авторскими правами, а также файлы нелегального содержания!