На всех торрентах на трекере установлена скидка на скачивание в размере 100 процентов(а).
 Возможность скачивания торрента НЕ зависит от ограничений при низком ратио, низком аплоаде, требуемом ратио или требуемом аплоаде.


Начать новую тему Ответить на тему
Статистика раздачи
Размер: 6.59 ГБ | Добавлен: 08 янв 2014, 19:14 | Скачали: 0
Сидеров: 0  [0 байт/сек]    Личеров: 0  [0 байт/сек]
Пред. тема | След. тема 

Автор
Сообщение

СообщениеДобавлено: 08 янв 2014, 19:14 

Летучий отряд Скотланд-Ярда / The Sweeney
«Чтобы поймать преступника - действуй как преступник»




Страна: Великобритания
Студия: Vertigo Films, Embargo Films, Exponential Films
Жанр: боевик, драма, криминал
Год выпуска: 2012
Продолжительность: 01:52:30

Перевод: русский профессиональный (многоголосый, закадровый) [Лицензия, R5]
Оригинальная аудиодорожка: английская
Русские субтитры: есть
Режиссер: Ник Лав / Nick Love
В ролях: Рэй Уинстон, Бен Дрю, Хейли Этвелл, Стивен Макинтош, Пол Андерсон, Алан Форд, Дэмиэн Льюис, Кэролайн Чикези, Аллен Лич, Ронни Фокс



Английская полиция прикладывает максимум усилий для того, чтобы преступники были наказаны. Но детектив Джек Риген борется с преступностью по-своему: грязными, нелегальными, жестокими методами…


Тип релиза: BDRip 1080p (исходник: Летучий отряд Скотланд-Ярда / The Sweeney (2012) Blu-ray Disc -BLUEBIRD)
Контейнер: MKV
Видео кодек: x264
Аудио кодек: AC3
Видео: AVC / High@L4.1 / 2 pass / 23,976 fps / 1920x800p (2,40:1) / 7,3 Mbps / 0.198
Аудио 1: AC3 / 5.1 ch / 448 kbps / Русский MVO, R5
Аудио 2: AC3 / 5.1 ch / 640 kbps / Английский original, BD US
Субтитры: [softsub SRT]
Русские Full, R5
Английские Full, BD US
Дополнительно: Сохранены оригинальные чаптеры (главы) как на Blu-ray


Раздача от:












x264 [info]: frame I:1489 Avg QP:16.31 size:200324
x264 [info]: frame P:38782 Avg QP:18.40 size: 72458
x264 [info]: frame B:121585 Avg QP:20.86 size: 25088

Общее
Уникальный идентификатор : 226689974180535415126009395939975157788 (0xAA8AE6A3C90D50009C7E14772024D81C)
Полное имя : F:Скачка торрентThe.Sweeney.2012.BDRip1080p(Killbrain)_[scarabey.org].mkv
Формат : Matroska
Версия формата : Version 2
Размер файла : 6,59 Гбайт
Продолжительность : 1 ч. 52 м.
Общий поток : 8389 Кбит/сек
Название фильма : The Sweeney (2012) by Killbrain
Дата кодирования : UTC 2014-01-08 13:40:12
Программа кодирования : mkvmerge v5.8.0 ('No Sleep / Pillow') built on Sep 2 2012 15:37:04
Библиотека кодирования : libebml v1.2.3 + libmatroska v1.3.0

Видео
Идентификатор : 1
Формат : AVC
Формат/Информация : Advanced Video Codec
Профиль формата : High@L4.1
Параметр CABAC формата : Да
Параметр ReFrames формата : 4 кадра
Идентификатор кодека : V_MPEG4/ISO/AVC
Продолжительность : 1 ч. 52 м.
Битрейт : 7300 Кбит/сек
Ширина : 1920 пикселей
Высота : 800 пикселей
Соотношение сторон : 2,40:1
Режим частоты кадров : Постоянный
Частота кадров : 23,976 кадра/сек
Цветовое пространство : YUV
Субдискретизация насыщенности : 4:2:0
Битовая глубина : 8 бит
Тип развёртки : Прогрессивная
Бит/(Пиксели*Кадры) : 0.198
Размер потока : 5,61 Гбайт (85%)
Заголовок : The Sweeney (2012)
Библиотека кодирования : x264 core 138 r2358 9e941d1
Настройки программы : cabac=1 / ref=4 / deblock=1:-3:-3 / analyse=0x3:0x113 / me=umh / subme=10 / psy=1 / psy_rd=1.00:0.10 / mixed_ref=1 / me_range=32 / chroma_me=1 / trellis=2 / 8x8dct=1 / cqm=0 / deadzone=21,11 / fast_pskip=0 / chroma_qp_offset=-3 / threads=3 / lookahead_threads=1 / sliced_threads=0 / nr=0 / decimate=0 / interlaced=0 / bluray_compat=0 / constrained_intra=0 / bframes=6 / b_pyramid=2 / b_adapt=2 / b_bias=0 / direct=3 / weightb=1 / open_gop=0 / weightp=2 / keyint=240 / keyint_min=24 / scenecut=40 / intra_refresh=0 / rc_lookahead=60 / rc=2pass / mbtree=0 / bitrate=7300 / ratetol=1.0 / qcomp=0.65 / qpmin=0 / qpmax=69 / qpstep=4 / cplxblur=20.0 / qblur=0.5 / vbv_maxrate=40000 / vbv_bufsize=30000 / nal_hrd=none / ip_ratio=1.40 / pb_ratio=1.30 / aq=1:0.80
Язык : English
Default : Да
Forced : Нет

Аудио #1
Идентификатор : 2
Формат : AC-3
Формат/Информация : Audio Coding 3
Расширение режима : CM (complete main)
Параметр Endianness формата : Big
Идентификатор кодека : A_AC3
Продолжительность : 1 ч. 52 м.
Вид битрейта : Постоянный
Битрейт : 448 Кбит/сек
Каналы : 6 каналов
Расположение каналов : Front: L C R, Side: L R, LFE
Частота : 48,0 КГц
Битовая глубина : 16 бит
Метод сжатия : С потерями
Размер потока : 361 Мбайт (5%)
Заголовок : AC3 / 5.1 ch / 448 kbps / Русский MVO, R5
Язык : Russian
Default : Да
Forced : Нет

Аудио #2
Идентификатор : 3
Формат : AC-3
Формат/Информация : Audio Coding 3
Расширение режима : CM (complete main)
Параметр Endianness формата : Big
Идентификатор кодека : A_AC3
Продолжительность : 1 ч. 52 м.
Вид битрейта : Постоянный
Битрейт : 640 Кбит/сек
Каналы : 6 каналов
Расположение каналов : Front: L C R, Side: L R, LFE
Частота : 48,0 КГц
Битовая глубина : 16 бит
Метод сжатия : С потерями
Размер потока : 515 Мбайт (8%)
Заголовок : AC3 / 5.1 ch / 640 kbps / Английский original, BD US
Язык : English
Default : Нет
Forced : Нет

Текст #1
Идентификатор : 4
Формат : UTF-8
Идентификатор кодека : S_TEXT/UTF8
Идентификатор кодека/Информация : UTF-8 Plain Text
Заголовок : Full, R5
Язык : Russian
Default : Нет
Forced : Нет

Текст #2
Идентификатор : 5
Формат : UTF-8
Идентификатор кодека : S_TEXT/UTF8
Идентификатор кодека/Информация : UTF-8 Plain Text
Заголовок : Full, BD US
Язык : English
Default : Нет
Forced : Нет

Меню
00:00:00.000 : :Chapter 01
00:02:30.483 : :Chapter 02
00:08:25.379 : :Chapter 03
00:14:03.801 : :Chapter 04
00:18:37.199 : :Chapter 05
00:23:48.802 : :Chapter 06
00:30:36.543 : :Chapter 07
00:39:29.700 : :Chapter 08
00:51:49.439 : :Chapter 09
00:56:04.819 : :Chapter 10
01:02:58.107 : :Chapter 11
01:06:33.197 : :Chapter 12
01:13:10.135 : :Chapter 13
01:16:45.851 : :Chapter 14
01:22:14.012 : :Chapter 15
01:26:23.928 : :Chapter 16
01:29:36.537 : :Chapter 17
01:35:08.369 : :Chapter 18
01:41:53.398 : :Chapter 19
01:49:25.016 : :Chapter 20




загрузка...
Правила, инструкции, FAQ!!!
Торрент  Добавлен [08 янв 2014, 19:14] Скачать торрент
Скачать торрент
[ Размер 17.08 КБ / Просмотров 14 ]

Статус  
 
Размер  6.59 ГБ
Приватный: Нет (DHT включён)
.torrent скачан  0
Как залить торрент? | Как скачать Torrent? | Как смотреть и слушать онлайн?  


     Отправить личное сообщение
   
Страница 1 из 1
Показать сообщения за:  Поле сортировки  
Начать новую тему Ответить на тему

   Похожие торренты   Автор   Ответы   Просмотры   Последнее сообщение 
В этой теме нет новых непрочитанных сообщений. Скачать торрент Проверен Фантомас против Скотланд-Ярда / Fantomas contre Scotland Yard Yard (1967) BDRip 1080p | FilmRus

в форуме 720p | 1080p, Размер: 10.36 ГБ, Здоровье: 33%

Anonymous

0
4|12

105
2

21 апр 2015, 18:58

Anonymous Перейти к последнему сообщению

В этой теме нет новых непрочитанных сообщений. Скачать торрент Проверен Карательный отряд / Force of Execution (2013) BDRip 1080p | P

в форуме 720p | 1080p, Размер: 7.23 ГБ, Здоровье: 0%

Anonymous

0
1|116

35
1

01 фев 2015, 21:48

Anonymous Перейти к последнему сообщению

В этой теме нет новых непрочитанных сообщений. Скачать торрент Замбезия / Zambezia (2012) BDRip 1080p | Лицензия

в форуме Зарубежные мультфильмы (HD Video), Размер: 6.08 ГБ, Здоровье: 100%

Anonymous

0
11|3

50
184

10 фев 2014, 22:31

Anonymous Перейти к последнему сообщению

В этой теме нет новых непрочитанных сообщений. Скачать торрент Схватка / The Grey (2012) BDRip 1080p | Лицензия

в форуме 720p | 1080p, Размер: 8.76 ГБ, Здоровье: 100%

Anonymous

0
17|0

31
3

29 янв 2014, 20:24

Anonymous Перейти к последнему сообщению

В этой теме нет новых непрочитанных сообщений. Скачать торрент Прометей / Prometheus (2012) BDRip 1080p | Лицензия

в форуме 720p | 1080p, Размер: 13.59 ГБ, Здоровье: 100%

Anonymous

0
15|2

78
1414

08 янв 2014, 23:49

Anonymous Перейти к последнему сообщению



Сейчас этот форум просматривают: нет зарегистрированных пользователей и гости: 1


Вы не можете начинать темы
Вы не можете отвечать на сообщения
Вы не можете редактировать свои сообщения
Вы не можете удалять свои сообщения
Вы не можете добавлять вложения

Перейти:  

!ВНИМАНИЕ!
 Ресурс не предоставляет электронные версии произведений, а занимается лишь коллекционированием и каталогизацией ссылок, присылаемых и публикуемых на форуме нашими читателями. Если вы являетесь правообладателем какого-либо представленного материала и не желаете чтобы ссылка на него находилась в нашем каталоге, свяжитесь с нами и мы незамедлительно удалим её. Файлы для обмена на трекере предоставлены пользователями сайта, и администрация не несёт ответственности за их содержание. Просьба не заливать файлы, защищенные авторскими правами, а также файлы нелегального содержания!