На всех торрентах на трекере установлена скидка на скачивание в размере 100 процентов(а).
 Возможность скачивания торрента НЕ зависит от ограничений при низком ратио, низком аплоаде, требуемом ратио или требуемом аплоаде.


Начать новую тему Ответить на тему
Статистика раздачи
Размер: 2.89 ГБ | Добавлен: 08 янв 2014, 13:50 | Скачали: 0
Сидеров: 0  [0 байт/сек]    Личеров: 0  [0 байт/сек]
Пред. тема | След. тема 

Автор
Сообщение

СообщениеДобавлено: 08 янв 2014, 13:50 

Жанр: Ужасы, Детектив
Год выхода: 2006

Режиссер: Кристоф Ганс /Christophe Gans/

В ролях: Джоделль Ферланд /Jodelle Ferland/, Коллин Уильямс /Colleen Williams/, Рон Гэбриел /Ron Gabriel/, Рада Митчелл /Radha Mitchell/, Таня Аллен /Tanya Allen/, Дебора Кара Ангер /Deborah Kara Unger/, Ким Коутс /Kim Coates/, Шон Бин /Sean Bean/, Элис Крайдж /Alice Krige/, Лори Холден /Laurie Holden/ ...

Описание: Молодая мать, отчаявшись найти лекарство от таинственного заболевания своей дочери Шэрон, отказывается отдать ее в психиатрическую лечебницу. Вместе с Шэрон она отправляется в Сайлент Хилл, город, название которого ее дочь постоянно твердит во сне.

Несмотря на сопротивление мужа, Роуз убеждена, что найдет там ответы, в которых так нуждается. Но когда они подъезжают к заброшенному городу, на дороге появляется таинственная фигура, Роуз резко тормозит, и машина попадает в аварию… Придя в себя, она обнаруживает, что Шэрон исчезла…

В компании упрямой женщины-полицейской из городка неподалеку Роуз отправляется на поиски своего ребенка в Сайлент Хилл, место, непохожее ни на одно другое: город покрыт туманом, его населяют странные, проклятые создания, и время от времени он погружается во Мрак, который буквально меняет все, к чему прикасается…

В поисках дочери Роуз узнает об истории Сайлент Хилла, его пуританском прошлом, полном насилия, и причинах проклятия, висящего над городом. Она понимает, ее ребенок — лишь часть большой, ужасающей головоломки…



Релиз:

Автор рипа: AngelOfTrue

Продолжительность: 02:05:19

Перевод: Русский дублированный перевод + Оригинальная дорожка

Субтитры: Русские (полные, форсированные), Английские (полные).


Качество: BDRip-AVC (Исходник: Silent.Hill.2006.1080p.FRA.BluRay.AVC.DTSMA.5.1-Dion)
Формат: MKV
Видео: MPEG-4 AVC, x264, 1136 x 484; 23.976 fps; 2410 kbps; 0.183 bit/pixel
Аудио #1: 48 kHz, AC3 Dolby Digital, 3/2 (L,C,R,l,r) + LFE ch, ~448.00 kbps avg
Аудио #2: 48 kHz, AC3 Dolby Digital, 3/2 (L,C,R,l,r) + LFE ch, ~448.00 kbps avg


avs [info]: 1136x484p 1:1 @ 2997/125 fps (cfr)
x264 [warning]: --psnr used with psy on: results will be invalid!
x264 [warning]: --tune psnr should be used if attempting to benchmark psnr!
x264 [info]: using SAR=1/1
x264 [info]: using cpu capabilities: MMX2 SSE2Fast SSSE3 SSE4.2 AVX AVX2 FMA3 LZCNT BMI1 BMI2
x264 [info]: profile High, level 4.0
x264 [info]: frame I:1167 Avg QP:17.99 size: 64670 PSNR Mean Y:45.72 U:48.26 V:48.98 Avg:46.41 Global:45.39
x264 [info]: frame P:35459 Avg QP:21.26 size: 23936 PSNR Mean Y:43.82 U:47.74 V:48.44 Avg:44.73 Global:43.50
x264 [info]: frame B:143679 Avg QP:23.06 size: 9311 PSNR Mean Y:42.94 U:47.45 V:48.29 Avg:43.88 Global:42.48
x264 [info]: consecutive B-frames: 1.4% 1.6% 4.2% 19.7% 17.3% 35.7% 7.3% 5.1% 1.9% 1.5% 1.8% 1.2% 0.5% 0.2% 0.5%
x264 [info]: mb I I16..4: 8.1% 74.7% 17.2%
x264 [info]: mb P I16..4: 1.4% 9.2% 1.5% P16..4: 30.8% 36.1% 12.6% 1.5% 0.1% skip: 6.8%
x264 [info]: mb B I16..4: 0.1% 1.3% 0.2% B16..8: 37.4% 18.7% 3.3% direct: 4.9% skip:34.0% L0:44.5% L1:47.7% BI: 7.7%
x264 [info]: 8x8 transform intra:77.3% inter:60.7%
x264 [info]: direct mvs spatial:98.4% temporal:1.6%
x264 [info]: coded y,uvDC,uvAC intra: 82.4% 70.4% 38.7% inter: 26.1% 15.6% 3.9%
x264 [info]: i16 v,h,dc,p: 52% 13% 6% 29%
x264 [info]: i8 v,h,dc,ddl,ddr,vr,hd,vl,hu: 10% 5% 6% 11% 16% 14% 14% 12% 12%
x264 [info]: i4 v,h,dc,ddl,ddr,vr,hd,vl,hu: 32% 4% 10% 7% 11% 10% 9% 8% 8%
x264 [info]: i8c dc,h,v,p: 31% 28% 21% 20%
x264 [info]: Weighted P-Frames: Y:7.4% UV:2.8%
x264 [info]: ref P L0: 48.2% 7.2% 16.0% 7.3% 5.5% 4.2% 3.4% 2.0% 1.6% 1.4% 1.2% 1.0% 0.9% 0.1% 0.0%
x264 [info]: ref B L0: 69.8% 13.1% 6.2% 3.2% 2.2% 1.7% 1.4% 0.8% 0.7% 0.6% 0.3% 0.1%
x264 [info]: ref B L1: 92.2% 7.8%
x264 [info]: SSIM Mean Y:0.9623990 (14.248db)
x264 [info]: PSNR Mean Y:43.128 U:47.510 V:48.321 Avg:44.064 Global:42.674 kb/s:2406.38



Format : Matroska
Format version : Version 4 / Version 2
File size : 2.89 GiB
Duration : 2h 5mn
Overall bit rate : 3 304 Kbps
Encoded date : UTC 2014-01-08 09:08:53
Writing application : mkvmerge v6.1.0 ('Old Devil') built on Mar 4 2013 09:10:42
Writing library : libebml v1.3.0 + libmatroska v1.4.0

Video
ID : 1
Format : AVC
Format/Info : Advanced Video Codec
Format profile : High@L4.0
Format settings, CABAC : Yes
Format settings, ReFrames : 13 frames
Codec ID : V_MPEG4/ISO/AVC
Duration : 2h 5mn
Bit rate : 2 410 Kbps
Width : 1 136 pixels
Height : 484 pixels
Display aspect ratio : 2.35:1
Frame rate : 23.976 fps
Color space : YUV
Chroma subsampling : 4:2:0
Bit depth : 8 bits
Scan type : Progressive
Bits/(Pixel*Frame) : 0.183
Stream size : 2.05 GiB (71%)
Title : Sailent.Hill.2006.DUAL.BDRip-AVC.AC3.-HQ-ViDEO
Writing library : x264 core 130 r2273 b3065e6
Encoding settings : cabac=1 / ref=13 / deblock=1:-3:-2 / analyse=0x3:0x133 / me=umh / subme=11 / psy=1 / psy_rd=1.00:0.00 / mixed_ref=1 / me_range=32 / chroma_me=1 / trellis=2 / 8x8dct=1 / cqm=0 / deadzone=21,11 / fast_pskip=0 / chroma_qp_offset=-2 / threads=6 / lookahead_threads=1 / sliced_threads=0 / nr=0 / decimate=0 / interlaced=0 / bluray_compat=0 / constrained_intra=0 / bframes=14 / b_pyramid=2 / b_adapt=2 / b_bias=0 / direct=3 / weightb=1 / open_gop=0 / weightp=2 / keyint=240 / keyint_min=23 / scenecut=40 / intra_refresh=0 / rc_lookahead=60 / rc=2pass / mbtree=0 / bitrate=2410 / ratetol=1.0 / qcomp=0.65 / qpmin=0 / qpmax=69 / qpstep=4 / cplxblur=20.0 / qblur=0.5 / vbv_maxrate=20000 / vbv_bufsize=25000 / nal_hrd=none / ip_ratio=1.35 / pb_ratio=1.25 / aq=2:1.00
Language : Russian
Default : Yes
Forced : No
Color primaries : BT.709-5, BT.1361, IEC 61966-2-4, SMPTE RP177
Transfer characteristics : BT.709-5, BT.1361

Audio #1
ID : 2
Format : AC-3
Format/Info : Audio Coding 3
Mode extension : CM (complete main)
Codec ID : A_AC3
Duration : 2h 5mn
Bit rate mode : Constant
Bit rate : 448 Kbps
Channel(s) : 6 channels
Channel positions : Front: L C R, Side: L R, LFE
Sampling rate : 48.0 KHz
Bit depth : 16 bits
Compression mode : Lossy
Stream size : 402 MiB (14%)
Title : Dub (CEE)
Language : Russian
Default : Yes
Forced : No

Audio #2
ID : 3
Format : AC-3
Format/Info : Audio Coding 3
Mode extension : CM (complete main)
Codec ID : A_AC3
Duration : 2h 5mn
Bit rate mode : Constant
Bit rate : 448 Kbps
Channel(s) : 6 channels
Channel positions : Front: L C R, Side: L R, LFE
Sampling rate : 48.0 KHz
Bit depth : 16 bits
Compression mode : Lossy
Stream size : 402 MiB (14%)
Title : Original (English)
Language : English
Default : No
Forced : No

Text #1
ID : 4
Format : UTF-8
Codec ID : S_TEXT/UTF8
Codec ID/Info : UTF-8 Plain Text
Title : Russian (for)
Language : Russian
Default : Yes
Forced : Yes

Text #2
ID : 5
Format : UTF-8
Codec ID : S_TEXT/UTF8
Codec ID/Info : UTF-8 Plain Text
Title : Russian (full)
Language : Russian
Default : No
Forced : No

Text #3
ID : 6
Format : UTF-8
Codec ID : S_TEXT/UTF8
Codec ID/Info : UTF-8 Plain Text
Title : English (full)
Language : English
Default : No
Forced : No

Скриншоты для оценки качества:




ПРИЯТНОГО ПРОСМОТРА!
загрузка...
Правила, инструкции, FAQ!!!
Торрент  Добавлен [08 янв 2014, 13:50] Скачать торрент
Скачать торрент
[ Размер 29.72 КБ / Просмотров 3 ]

Статус  
 
Размер  2.89 ГБ
Приватный: Нет (DHT включён)
.torrent скачан  0
Как залить торрент? | Как скачать Torrent? | Как смотреть и слушать онлайн?  


     Отправить личное сообщение
   
Страница 1 из 1
Показать сообщения за:  Поле сортировки  
Начать новую тему Ответить на тему

   Похожие торренты   Автор   Ответы   Просмотры   Последнее сообщение 
В этой теме нет новых непрочитанных сообщений. Скачать торрент Проверен Галлоуз Хилл / Gallows Hill / The Damned (2013) WEB-DLRip | L1

в форуме Ужасы, Размер: 1.36 ГБ, Здоровье: 100%

Anonymous

0
24|2

67
16

30 июл 2014, 21:37

Anonymous Перейти к последнему сообщению

В этой теме нет новых непрочитанных сообщений. Скачать торрент Проверен Хилл (Hill) Джо (Joe) - Призраки ХХ века [Анна Самойлова, (ЛИ), 2013 г., 128 kbps, MP3]

в форуме Зарубежная фантастика, фэнтези, мистика, ужасы, Размер: 669.72 МБ, Здоровье: 0%

Anonymous

0
0|0

1
0

11 сен 2016, 11:07

Anonymous Перейти к последнему сообщению

В этой теме нет новых непрочитанных сообщений. Скачать торрент Проверен Детектив - Casey Hill / Кейси Хилл - Taboo / Табу [2012, PDF, RUS]

в форуме Детективы и Боевики, Размер: 33.79 МБ, Здоровье: 100%

Anonymous

0
5|2

6
0

08 сен 2016, 20:46

Anonymous Перейти к последнему сообщению

В этой теме нет новых непрочитанных сообщений. Скачать торрент Проверен Теренс Хилл и Бад Спенсер / Terrence Hill & Bud Spencer - (Фильмография) (1964-1997) DVDRip

в форуме Антологии, Размер: 40.4 ГБ, Здоровье: 16%

Anonymous

0
1|6

234
1

11 дек 2014, 21:18

Anonymous Перейти к последнему сообщению

В этой теме нет новых непрочитанных сообщений. Скачать торрент Проверен [iPhone] Герой - одиночка / Last Man Standing (Уолтер Хилл/ Walter Hill) [1996 г., Боевик/ Триллер/ Криминал /Драма, HDTVRip]

в форуме Фильмы для iPod, iPhone, iPad, Размер: 619.92 МБ, Здоровье: 100%

Гость

0
1|0

39
0

11 май 2015, 01:31

Гость Перейти к последнему сообщению



Сейчас этот форум просматривают: нет зарегистрированных пользователей и гости: 3


Вы не можете начинать темы
Вы не можете отвечать на сообщения
Вы не можете редактировать свои сообщения
Вы не можете удалять свои сообщения
Вы не можете добавлять вложения

Перейти:  

!ВНИМАНИЕ!
 Ресурс не предоставляет электронные версии произведений, а занимается лишь коллекционированием и каталогизацией ссылок, присылаемых и публикуемых на форуме нашими читателями. Если вы являетесь правообладателем какого-либо представленного материала и не желаете чтобы ссылка на него находилась в нашем каталоге, свяжитесь с нами и мы незамедлительно удалим её. Файлы для обмена на трекере предоставлены пользователями сайта, и администрация не несёт ответственности за их содержание. Просьба не заливать файлы, защищенные авторскими правами, а также файлы нелегального содержания!