На всех торрентах на трекере установлена скидка на скачивание в размере 100 процентов(а).
 Возможность скачивания торрента НЕ зависит от ограничений при низком ратио, низком аплоаде, требуемом ратио или требуемом аплоаде.


Начать новую тему Ответить на тему
Статистика раздачи
Размер: 4.32 ГБ | Добавлен: 08 янв 2014, 13:43 | Скачали: 0
Сидеров: 0  [0 байт/сек]    Личеров: 0  [0 байт/сек]
Пред. тема | След. тема 

Автор
Сообщение

СообщениеДобавлено: 08 янв 2014, 13:43 

Жанр: Боевик, Комедия, Криминал
Год: 2010
Студия: Warner Bros. Pictures
Режиссер: Кевин Смит /Kevin Smith/

В ролях: Брюс Уиллис /Bruce Willis/, Трэйси Морган /Tracy Morgan/, Хуан Карлос Хернандез /Juan Carlos Hernández/, Кори Фернандез /Cory Fernandez/, Ана Де Ла Регуера /Ana de la Reguera/, Джейсон Харт /Jason Hurt/, Джефф Лима /Jeff Lima/, Шон Каллен /Sean Cullen/, Кевин Поллак /Kevin Pollak/, Адам Броди /Adam Brody/

Описание: История двух давних напарников — нью-йоркских полицейских, занятых поисками очень редкой и чертовски дорогой бейсбольной карточки, украденной у одного из них. Они вынуждены противостоять беспощадному гангстеру, просто помешанному на коллекционных вещицах.

Джимми, всю жизнь проработавший в полиции, возлагал на пропавшую карточку все свои надежды, так как только с помощью нее он мог бы оплатить предстоящую свадьбу дочери, а Пол, его так называемый «напарник в борьбе с преступностью», столь зацикливается на предполагаемой неверности своей жены, что ему становится уже непросто отслеживать пропажу…

Примечание: Содержит ненормативную лексику

********** Cop Out (2010) ***********

Release Date: 23.08.2010

Release Info:

Author ........: GYN

Runtime .......: 01:47:30 min
Video Format ..: MKV, H.264 codec
Video Bitrate .: 4 811 kbps
Bits per Pixel : 0.292 bit/pixel
Resolution ....: 1 280 x 536
Aspect Ratio ..: 2.35:1
Framerate .....: 23.976 fps

Audio First....: Russian AC3 Dolby Digital; 384.00 kbps; 5.1 Ch; 48 kHz
Audio Second...: English AC3 Dolby Digital; 448.00 kbps; 5.1 Ch; 48 kHz
Subtitle.......: Russian, English.

File Size .....: 4.32 GB
Source.........: Blu-ray Disc



General
Complete name : Dvojnoj.Kopets.2010.DUAL.BDRip.h264.720p.AC3.-HQ-ViDEO.mkv
Format : Matroska
File size : 4.32 GiB
Duration : 1h 47mn
Overall bit rate : 5 758 Kbps
Movie name : Cop Out (2010)
Encoded date : UTC 2010-08-23 13:53:23
Writing application : mkvmerge v3.3.0 ('Language') built on Mar 24 2010 14:59:24
Writing library : libebml v0.8.0 + libmatroska v0.9.0

Video
ID : 1
Format : AVC
Format/Info : Advanced Video Codec
Format profile : High@L4.1
Format settings, CABAC : Yes
Format settings, ReFrames : 6 frames
Muxing mode : Container profile=Unknown@4.1
Codec ID : V_MPEG4/ISO/AVC
Duration : 1h 47mn
Bit rate : 4 811 Kbps
Width : 1 280 pixels
Height : 536 pixels
Display aspect ratio : 2.35:1
Frame rate : 23.976 fps
Resolution : 8 bits
Colorimetry : 4:2:0
Scan type : Progressive
Bits/(Pixel*Frame) : 0.292
Stream size : 3.61 GiB (83%)
Title : Encoded by GYN

Audio #1
ID : 2
Format : AC-3
Format/Info : Audio Coding 3
Codec ID : A_AC3
Duration : 1h 47mn
Bit rate mode : Constant
Bit rate : 384 Kbps
Channel(s) : 6 channels
Channel positions : Front: L C R, Surround: L R, LFE
Sampling rate : 48.0 KHz
Stream size : 295 MiB (7%)
Title : DUB
Language : Russian

Audio #2
ID : 3
Format : AC-3
Format/Info : Audio Coding 3
Codec ID : A_AC3
Duration : 1h 47mn
Bit rate mode : Constant
Bit rate : 448 Kbps
Channel(s) : 6 channels
Channel positions : Front: L C R, Surround: L R, LFE
Sampling rate : 48.0 KHz
Stream size : 344 MiB (8%)
Title : Original
Language : English

Text #1
ID : 4
Format : UTF-8
Codec ID : S_TEXT/UTF8
Codec ID/Info : UTF-8 Plain Text
Language : Russian

Text #2
ID : 5
Format : UTF-8
Codec ID : S_TEXT/UTF8
Codec ID/Info : UTF-8 Plain Text
Language : English

Язык: Русский дублированный

Субтитры: Русские, Английские

Скриншоты для оценки качества (превью - увеличение по клику):


Релиз:
Автор рипа: GYN

ПРИЯТНОГО ПРОСМОТРА!
загрузка...
Правила, инструкции, FAQ!!!
Торрент  Добавлен [08 янв 2014, 13:43] Скачать торрент
Скачать торрент
[ Размер 22.47 КБ / Просмотров 9 ]

Статус  
 
Размер  4.32 ГБ
Приватный: Нет (DHT включён)
.torrent скачан  0
Как залить торрент? | Как скачать Torrent? | Как смотреть и слушать онлайн?  


     Отправить личное сообщение
   
Страница 1 из 1
Показать сообщения за:  Поле сортировки  
Начать новую тему Ответить на тему

   Похожие торренты   Автор   Ответы   Просмотры   Последнее сообщение 
В этой теме нет новых непрочитанных сообщений. Скачать торрент Проверен [480x360] Двойной КОПец / Cop Out (2010) BDRip

в форуме Видео для смартфонов и КПК, Размер: 677.01 МБ, Здоровье: 0%

Anonymous

0
0|0

51
0

25 окт 2014, 23:27

Anonymous Перейти к последнему сообщению

В этой теме нет новых непрочитанных сообщений. Скачать торрент Двойной КОПец / Cop Out (Кевин Смит / Kevin Smith) [2010, США, боевик, комедия, криминал, BDRip] (перевод Гоблина)

в форуме Боевики, Размер: 1.37 ГБ, Здоровье: 100%

Anonymous

0
48|16

50
0

17 май 2014, 20:08

Anonymous Перейти к последнему сообщению

В этой теме нет новых непрочитанных сообщений. Скачать торрент Двойной КОПец / Крепкие Орешки / Cop Out (Кевин Смит / Kevin Smith) [2010, США, Боевик, комедия, криминал, BDRip] AVO Гаврилов

в форуме Боевики, Размер: 1.74 ГБ, Здоровье: 100%

Anonymous

0
2|1

40
0

17 май 2014, 20:08

Anonymous Перейти к последнему сообщению

В этой теме нет новых непрочитанных сообщений. Скачать торрент Двойной агент / The Double (2011) BDRip-AVC | L2

в форуме 720p | 1080p, Размер: 2.19 ГБ, Здоровье: 0%

Anonymous

0
0|0

24
0

23 фев 2014, 09:30

Anonymous Перейти к последнему сообщению

В этой теме нет новых непрочитанных сообщений. Скачать торрент Проверен Шитов Владимир - Двойной приговор [Розинова Галина, 2010, 96 kbps, 44 kHz]

в форуме Детектив и Боевики, Размер: 52.46 МБ, Здоровье: 0%

Anonymous

0
0|0

0
0

20 ноя 2016, 01:56

Anonymous Перейти к последнему сообщению



Сейчас этот форум просматривают: нет зарегистрированных пользователей и гости: 1


Вы не можете начинать темы
Вы не можете отвечать на сообщения
Вы не можете редактировать свои сообщения
Вы не можете удалять свои сообщения
Вы не можете добавлять вложения

Перейти:  

!ВНИМАНИЕ!
 Ресурс не предоставляет электронные версии произведений, а занимается лишь коллекционированием и каталогизацией ссылок, присылаемых и публикуемых на форуме нашими читателями. Если вы являетесь правообладателем какого-либо представленного материала и не желаете чтобы ссылка на него находилась в нашем каталоге, свяжитесь с нами и мы незамедлительно удалим её. Файлы для обмена на трекере предоставлены пользователями сайта, и администрация не несёт ответственности за их содержание. Просьба не заливать файлы, защищенные авторскими правами, а также файлы нелегального содержания!
cron