На всех торрентах на трекере установлена скидка на скачивание в размере 100 процентов(а).
 Возможность скачивания торрента НЕ зависит от ограничений при низком ратио, низком аплоаде, требуемом ратио или требуемом аплоаде.


Начать новую тему Ответить на тему
Статистика раздачи
Размер: 2.04 ГБ | Добавлен: 07 янв 2014, 21:02 | Скачали: 0
Сидеров: 29  [0 байт/сек]    Личеров: 1  [0 байт/сек]
Пред. тема | След. тема 

Автор
Сообщение

СообщениеДобавлено: 07 янв 2014, 21:02 

Название: Отель «Руанда»
Оригинальное название: Hotel Rwanda
Год выхода: 2004
Жанр: драма, военный, биография, история
Режиссер: Терри Джордж

В ролях: Дон Чидл, Софи Оконедо, Ник Нолти, Кэра Сеймур, Хоакин Феникс, Жан Рено, Колани Мали, Десмонд Дюбэ, Хаким Кае-Казим, Тони Кгороге...

О фильме: Сюжет фильма основан на реальных событиях середины 90-х годов прошлого века, когда народ хуту, составлявшее в Руанде этническое большинство, устроило в стране кровавую резню, уничтожив более миллиона (!) человек, принадлежавших народу тутси.

Главный герой фильма по имени Пол — управляющий престижного отеля в столице Руанды, в котором от убийц укрылись несколько сотен человек. Пол делает все от него зависящее, чтобы их спасти. Ситуация осложняется тем, что жена Пола также принадлежит народу тутси. У Пола большие связи, он не гнушается ни подкупом, ни шантажом; он угрожает, умоляет, льстит… И спасает от гибели 1268 человек.



Страна: Великобритания, США, Италия, ЮАР
Продолжительность: 02:01:51
Перевод: Профессиональный (многоголосый закадровый), Оригинал (Английский)


Кодек: x.264
Качество: BDRip-AVC
Видео: 960x408 (2,35:1), 23.976 fps, 1770 kbps, 0.188 bit/pixel
Аудио #1: 48 kHz, AC3 Dolby Digital, 6 ch, ~448.00 kbps | Русский
Аудио #2: 48 kHz, AC3 Dolby Digital, 2 ch, ~192.00 kbps | Английский
Субтитры: Русские, Английские (отключаемые)

&

Общее
Уникальный идентификатор : 229600418974021392967840299115420530162 (0xACBB6EA59D92D0549A4B67A77C7335F2)
Полное имя : D:TorrentHotel Rwanda.2004.BDRip-AVC.mkv
Формат : Matroska
Версия формата : Version 4 / Version 2
Размер файла : 2,04 Гбайт
Продолжительность : 2 ч. 1 м.
Общий поток : 2401 Кбит/сек
Название фильма : Отель «Руанда» / Hotel Rwanda (2004) BDRip-AVC rip by Rulya74
Дата кодирования : UTC 2014-01-07 16:44:22
Программа кодирования : mkvmerge v6.5.0 ('Isn't she lovely') built on Oct 20 2013 12:50:05
Библиотека кодирования : libebml v1.3.0 + libmatroska v1.4.1

Видео
Идентификатор : 1
Формат : AVC
Формат/Информация : Advanced Video Codec
Профиль формата : High@L4.1
Параметр CABAC формата : Да
Параметр ReFrames формата : 13 кадров
Идентификатор кодека : V_MPEG4/ISO/AVC
Продолжительность : 2 ч. 1 м.
Битрейт : 1770 Кбит/сек
Ширина : 960 пикселей
Высота : 408 пикселей
Соотношение сторон : 2,35:1
Режим частоты кадров : Постоянный
Частота кадров : 23,976 кадра/сек
Цветовое пространство : YUV
Субдискретизация насыщенности : 4:2:0
Битовая глубина : 8 бит
Тип развёртки : Прогрессивная
Бит/(Пиксели*Кадры) : 0.188
Размер потока : 1,46 Гбайт (71%)
Библиотека кодирования : x264 core 138 r2358 9e941d1
Настройки программы : cabac=1 / ref=13 / deblock=1:-3:-3 / analyse=0x3:0x112 / me=umh / subme=11 / psy=1 / psy_rd=1.04:0.08 / mixed_ref=1 / me_range=48 / chroma_me=1 / trellis=2 / 8x8dct=1 / cqm=0 / deadzone=21,11 / fast_pskip=0 / chroma_qp_offset=-3 / threads=10 / lookahead_threads=1 / sliced_threads=0 / nr=0 / decimate=1 / interlaced=0 / bluray_compat=0 / constrained_intra=0 / bframes=11 / b_pyramid=2 / b_adapt=1 / b_bias=0 / direct=3 / weightb=1 / open_gop=0 / weightp=2 / keyint=240 / keyint_min=23 / scenecut=40 / intra_refresh=0 / rc_lookahead=40 / rc=2pass / mbtree=1 / bitrate=1770 / ratetol=1.0 / qcomp=0.60 / qpmin=0 / qpmax=69 / qpstep=4 / cplxblur=20.0 / qblur=0.5 / vbv_maxrate=62500 / vbv_bufsize=78125 / nal_hrd=none / ip_ratio=1.40 / aq=1:1.00
Default : Да
Forced : Нет

Аудио #1
Идентификатор : 2
Формат : AC-3
Формат/Информация : Audio Coding 3
Расширение режима : CM (complete main)
Параметр Endianness формата : Big
Идентификатор кодека : A_AC3
Продолжительность : 2 ч. 1 м.
Вид битрейта : Постоянный
Битрейт : 448 Кбит/сек
Каналы : 6 каналов
Расположение каналов : Front: L C R, Side: L R, LFE
Частота : 48,0 КГц
Битовая глубина : 16 бит
Метод сжатия : С потерями
Размер потока : 390 Мбайт (19%)
Заголовок : Профессиональный (многоголосый закадровый)
Язык : Russian
Default : Да
Forced : Нет

Аудио #2
Идентификатор : 3
Формат : AC-3
Формат/Информация : Audio Coding 3
Расширение режима : CM (complete main)
Параметр Endianness формата : Big
Идентификатор кодека : A_AC3
Продолжительность : 2 ч. 1 м.
Вид битрейта : Постоянный
Битрейт : 192 Кбит/сек
Каналы : 2 канала
Расположение каналов : Front: L R
Частота : 48,0 КГц
Битовая глубина : 16 бит
Метод сжатия : С потерями
Размер потока : 167 Мбайт (8%)
Заголовок : Оригинал
Язык : English
Default : Нет
Forced : Нет

Текст #1
Идентификатор : 4
Формат : UTF-8
Идентификатор кодека : S_TEXT/UTF8
Идентификатор кодека/Информация : UTF-8 Plain Text
Язык : Russian
Default : Да
Forced : Нет

Текст #2
Идентификатор : 5
Формат : UTF-8
Идентификатор кодека : S_TEXT/UTF8
Идентификатор кодека/Информация : UTF-8 Plain Text
Язык : English
Default : Нет
Forced : Нет

загрузка...
Правила, инструкции, FAQ!!!
Торрент  Добавлен [07 янв 2014, 21:02] Скачать торрент
Скачать торрент
[ Размер 10.64 КБ / Просмотров 5 ]

Статус  
 
Размер  2.04 ГБ
Приватный: Нет (DHT включён)
.torrent скачан  0
Как залить торрент? | Как скачать Torrent? | Как смотреть и слушать онлайн?  


     Отправить личное сообщение
   
Страница 1 из 1
Показать сообщения за:  Поле сортировки  
Начать новую тему Ответить на тему

   Похожие торренты   Автор   Ответы   Просмотры   Последнее сообщение 
В этой теме нет новых непрочитанных сообщений. Скачать торрент Проверен Отель «Руанда» / Hotel Rwanda (2004) BDRip 720p | P

в форуме 720p | 1080p, Размер: 3.69 ГБ, Здоровье: 100%

Гость

0
147|80

34
60

19 май 2015, 23:55

Гость Перейти к последнему сообщению

В этой теме нет новых непрочитанных сообщений. Скачать торрент Отель «Мэриголд»: Лучший из экзотических / The Best Exotic Marigold Hotel (2011) BDRip | Лицензия

в форуме Драмы, Мелодрамы, Размер: 2.18 ГБ, Здоровье: 100%

Anonymous

0
192|12

98
574

10 дек 2013, 10:30

Anonymous Перейти к последнему сообщению

В этой теме нет новых непрочитанных сообщений. Скачать торрент Проверен Отель «Гранд Будапешт» / The Grand Budapest Hotel (2014) BDRip 720p | Лицензия

в форуме 720p | 1080p, Размер: 4.91 ГБ, Здоровье: 0%

Anonymous

0
0|0

102
0

05 июн 2014, 23:58

Anonymous Перейти к последнему сообщению

В этой теме нет новых непрочитанных сообщений. Скачать торрент Проверен Отель «Гранд Будапешт» / The Grand Budapest Hotel (2014) BDRip 1080p | Лицензия

в форуме 720p | 1080p, Размер: 8.19 ГБ, Здоровье: 0%

Anonymous

0
0|0

89
0

06 июн 2014, 00:02

Anonymous Перейти к последнему сообщению

В этой теме нет новых непрочитанных сообщений. Скачать торрент Проверен Отель «Мэриголд». Заселение продолжается / The Second Best Exotic Marigold Hotel (2015) BDRip [576p] iPad

в форуме Фильмы для iPod, iPhone, iPad, Размер: 2.16 ГБ, Здоровье: 100%

Гость

0
2|1

405
1

13 сен 2015, 01:34

Гость Перейти к последнему сообщению



Сейчас этот форум просматривают: нет зарегистрированных пользователей и гости: 0


Вы не можете начинать темы
Вы не можете отвечать на сообщения
Вы не можете редактировать свои сообщения
Вы не можете удалять свои сообщения
Вы не можете добавлять вложения

Перейти:  

!ВНИМАНИЕ!
 Ресурс не предоставляет электронные версии произведений, а занимается лишь коллекционированием и каталогизацией ссылок, присылаемых и публикуемых на форуме нашими читателями. Если вы являетесь правообладателем какого-либо представленного материала и не желаете чтобы ссылка на него находилась в нашем каталоге, свяжитесь с нами и мы незамедлительно удалим её. Файлы для обмена на трекере предоставлены пользователями сайта, и администрация не несёт ответственности за их содержание. Просьба не заливать файлы, защищенные авторскими правами, а также файлы нелегального содержания!