На всех торрентах на трекере установлена скидка на скачивание в размере 100 процентов(а).
 Возможность скачивания торрента НЕ зависит от ограничений при низком ратио, низком аплоаде, требуемом ратио или требуемом аплоаде.


Начать новую тему Ответить на тему
Статистика раздачи
Размер: 4.04 ГБ | Добавлен: 07 янв 2014, 10:02 | Скачали: 0
Сидеров: 0  [0 байт/сек]    Личеров: 0  [0 байт/сек]
Пред. тема | След. тема 

Автор
Сообщение

СообщениеДобавлено: 07 янв 2014, 10:02 

Название: Месть
Оригинальное название: Hævnen
Год выпуска: 2010
Жанр: Драма
Выпущено: Швеция, Дания, Danmarks Radio, Det Danske Filminstitut, Film Fyn
Режиссер: Сюзанна Бир

В ролях: Микаэль Персбрандт, Трин Дюрхольм, Ульрих Томсен, Вильям Йонк Нильсен, Маркус Рюгард, Уил Джонсон, Эдди Кимани, Эмили Мглая, Гэбриэл Мули, Джун Ваверу, Мэри Хуну Моат

О фильме: Сорокалетний Антон возвращается в родную Данию, много лет проработав в африканском лагере для беженцев. Долгие годы среди чужого горя научили его никогда не отвечать насилием на насилие. Даже когда местный автомеханик беспричинно избивает Антона, тот сдерживает гнев. Кажется, что конфликт исчерпан, но тут его сын Элиас вместе со своим другом Кристианом решают отомстить за отца...

Качество: BDRip 720p
Видео: MPEG-4 AVC, 3454 Кбит/с, 1280x536
Аудио: Русский, датский (АС3, 6 ch, 448 Кбит/с)

Продолжительность: 01:58:01
Перевод: Профессиональный многоголосый, авторский (Юрий Сербин)
Субтитры: Русские, английские





Оскар, 2011 год
Победитель (1):
Лучший фильм на иностранном языке — «Дания»

Золотой глобус, 2011 год
Победитель (1):
Лучший фильм на иностранном языке

Европейская киноакадемия, 2011 год
Победитель (1):
Лучший режиссер (Сюзанна Бир)

Номинации (3):
Лучший фильм
Лучшая мужская роль (Микаэл Персбрандт)
Приз зрительских симпатий за лучший фильм
Общее
Уникальный идентификатор : 233729340716959207214869908468739877718 (0xAFD6A234B70DA130AC931EFFA2502B56)
Полное имя : E:VideoMest'.2010.x264.BDRip.720p.mkv
Формат : Matroska
Версия формата : Version 4 / Version 2
Размер файла : 4,04 Гбайт
Продолжительность : 1 ч. 58 м.
Общий поток : 4895 Кбит/сек
Название фильма : Месть / Hævnen / 2010 / BDRip -- STarankov
Дата кодирования : UTC 2014-01-07 03:55:40
Программа кодирования : mkvmerge v6.6.0 ('The Edge Of The In Between') built on Dec 1 2013 17:55:00
Библиотека кодирования : libebml v1.3.0 + libmatroska v1.4.1

Видео
Идентификатор : 1
Формат : AVC
Формат/Информация : Advanced Video Codec
Профиль формата : High@L4.1
Параметр CABAC формата : Да
Параметр ReFrames формата : 9 кадров
Идентификатор кодека : V_MPEG4/ISO/AVC
Продолжительность : 1 ч. 58 м.
Битрейт : 3454 Кбит/сек
Ширина : 1280 пикселей
Высота : 536 пикселей
Соотношение сторон : 2,40:1
Режим частоты кадров : Постоянный
Частота кадров : 24,000 кадра/сек
Цветовое пространство : YUV
Субдискретизация насыщенности : 4:2:0
Битовая глубина : 8 бит
Тип развёртки : Прогрессивная
Бит/(Пиксели*Кадры) : 0.210
Размер потока : 2,85 Гбайт (71%)
Библиотека кодирования : x264 core 138 r2358 9e941d1
Настройки программы : cabac=1 / ref=9 / deblock=1:-1:-1 / analyse=0x3:0x113 / me=umh / subme=10 / psy=1 / psy_rd=1.00:0.15 / mixed_ref=1 / me_range=24 / chroma_me=1 / trellis=2 / 8x8dct=1 / cqm=0 / deadzone=21,11 / fast_pskip=0 / chroma_qp_offset=-3 / threads=6 / lookahead_threads=1 / sliced_threads=0 / nr=0 / decimate=1 / interlaced=0 / bluray_compat=0 / constrained_intra=0 / bframes=8 / b_pyramid=2 / b_adapt=2 / b_bias=0 / direct=1 / weightb=1 / open_gop=0 / weightp=2 / keyint=230 / keyint_min=23 / scenecut=40 / intra_refresh=0 / rc_lookahead=40 / rc=crf / mbtree=0 / crf=17.0 / qcomp=0.60 / qpmin=0 / qpmax=69 / qpstep=4 / vbv_maxrate=50000 / vbv_bufsize=62500 / crf_max=0.0 / nal_hrd=none / ip_ratio=1.40 / pb_ratio=1.30 / aq=1:1.00
Язык : Danish
Default : Да
Forced : Нет

Аудио #1
Идентификатор : 2
Формат : AC-3
Формат/Информация : Audio Coding 3
Расширение режима : CM (complete main)
Параметр Endianness формата : Big
Идентификатор кодека : A_AC3
Продолжительность : 1 ч. 58 м.
Вид битрейта : Постоянный
Битрейт : 448 Кбит/сек
Каналы : 6 каналов
Расположение каналов : Front: L C R, Side: L R, LFE
Частота : 48,0 КГц
Битовая глубина : 16 бит
Метод сжатия : С потерями
Размер потока : 378 Мбайт (9%)
Заголовок : MVO
Язык : Russian
Default : Да
Forced : Нет

Аудио #2
Идентификатор : 3
Формат : AC-3
Формат/Информация : Audio Coding 3
Расширение режима : CM (complete main)
Параметр Endianness формата : Big
Идентификатор кодека : A_AC3
Продолжительность : 1 ч. 58 м.
Вид битрейта : Постоянный
Битрейт : 448 Кбит/сек
Каналы : 6 каналов
Расположение каналов : Front: L C R, Side: L R, LFE
Частота : 48,0 КГц
Битовая глубина : 16 бит
Метод сжатия : С потерями
Размер потока : 378 Мбайт (9%)
Заголовок : AVO (Юрий Сербин)
Язык : Russian
Default : Нет
Forced : Нет

Аудио #3
Идентификатор : 4
Формат : AC-3
Формат/Информация : Audio Coding 3
Расширение режима : CM (complete main)
Параметр Endianness формата : Big
Идентификатор кодека : A_AC3
Продолжительность : 1 ч. 58 м.
Вид битрейта : Постоянный
Битрейт : 448 Кбит/сек
Каналы : 6 каналов
Расположение каналов : Front: L C R, Side: L R, LFE
Частота : 48,0 КГц
Битовая глубина : 16 бит
Метод сжатия : С потерями
Размер потока : 378 Мбайт (9%)
Заголовок : Original
Язык : Danish
Default : Нет
Forced : Нет

Текст #1
Идентификатор : 5
Формат : UTF-8
Идентификатор кодека : S_TEXT/UTF8
Идентификатор кодека/Информация : UTF-8 Plain Text
Заголовок : русский
Язык : Russian
Default : Нет
Forced : Нет

Текст #2
Идентификатор : 6
Формат : UTF-8
Идентификатор кодека : S_TEXT/UTF8
Идентификатор кодека/Информация : UTF-8 Plain Text
Заголовок : английский
Default : Нет
Forced : Нет

---[Information] [06.01.2014 23:21:02] avs [info]: 1280x536p 1:1 @ 24/1 fps (cfr)
---[Information] [06.01.2014 23:21:02] x264 [info]: using SAR=1/1
---[Information] [06.01.2014 23:21:03] x264 [info]: using cpu capabilities: MMX2 SSE2Fast SSSE3 SSE4.2
---[Information] [06.01.2014 23:21:03] x264 [info]: profile High, level 4.1
---[Information] [07.01.2014 7:36:50] x264 [info]: frame I:1389 Avg QP:14.47 size: 90501
---[Information] [07.01.2014 7:36:50] x264 [info]: frame P:36113 Avg QP:16.19 size: 38302
---[Information] [07.01.2014 7:36:50] x264 [info]: frame B:132452 Avg QP:18.29 size: 12327
---[Information] [07.01.2014 7:36:50] x264 [info]: consecutive B-frames: 2.0% 2.2% 9.4% 16.5% 15.8% 42.1% 5.8% 2.0% 4.1%
---[Information] [07.01.2014 7:36:50] x264 [info]: mb I I16..4: 11.4% 66.7% 21.9%
---[Information] [07.01.2014 7:36:50] x264 [info]: mb P I16..4: 2.0% 17.0% 2.5% P16..4: 31.3% 25.9% 14.8% 0.0% 0.0% skip: 6.6%
---[Information] [07.01.2014 7:36:50] x264 [info]: mb B I16..4: 0.2% 1.4% 0.2% B16..8: 36.6% 15.7% 4.4% direct: 7.4% skip:34.0% L0:44.1% L1:41.5% BI:14.4%
---[Information] [07.01.2014 7:36:50] x264 [info]: 8x8 transform intra:77.0% inter:52.8%
---[Information] [07.01.2014 7:36:50] x264 [info]: coded y,uvDC,uvAC intra: 87.1% 86.8% 73.9% inter: 27.2% 23.3% 7.8%
---[Information] [07.01.2014 7:36:50] x264 [info]: i16 v,h,dc,p: 46% 11% 15% 28%
---[Information] [07.01.2014 7:36:50] x264 [info]: i8 v,h,dc,ddl,ddr,vr,hd,vl,hu: 16% 12% 14% 7% 9% 10% 10% 10% 11%
---[Information] [07.01.2014 7:36:50] x264 [info]: i4 v,h,dc,ddl,ddr,vr,hd,vl,hu: 17% 11% 5% 8% 13% 13% 12% 10% 11%
---[Information] [07.01.2014 7:36:50] x264 [info]: i8c dc,h,v,p: 47% 20% 19% 15%
---[Information] [07.01.2014 7:36:50] x264 [info]: Weighted P-Frames: Y:3.2% UV:1.8%
---[Information] [07.01.2014 7:36:50] x264 [info]: ref P L0: 47.1% 11.3% 17.7% 6.3% 5.6% 3.9% 3.6% 2.0% 2.1% 0.3% 0.0%
---[Information] [07.01.2014 7:36:50] x264 [info]: ref B L0: 72.3% 12.3% 6.0% 3.3% 2.5% 2.1% 1.1% 0.4%
---[Information] [07.01.2014 7:36:50] x264 [info]: ref B L1: 93.1% 6.9%
---[Information] [07.01.2014 7:36:50] x264 [info]: kb/s:3549.11
---[Information] [07.01.2014 7:36:50] encoded 169954 frames, 5.71 fps, 3549.11 kb/s
--[Information] [07.01.2014 7:36:51] Final statistics
---[Information] [07.01.2014 7:36:51] Constant Quality Mode: Quality 17 computed...
---[Information] [07.01.2014 7:36:51] Video Bitrate Obtained (approximate): 3550 kbit/s
--[Information] [07.01.2014 7:36:51] MediaInfo
---[Information] File: E:RipMest'.2010.x264.BDRipMest'.2010.x264.BDRip.720.mkv


загрузка...
Правила, инструкции, FAQ!!!
Торрент  Добавлен [07 янв 2014, 10:02] Скачать торрент
Скачать торрент
[ Размер 20.64 КБ / Просмотров 3 ]

Статус  
 
Размер  4.04 ГБ
Приватный: Нет (DHT включён)
.torrent скачан  0
Как залить торрент? | Как скачать Torrent? | Как смотреть и слушать онлайн?  


     Отправить личное сообщение
   
Страница 1 из 1
Показать сообщения за:  Поле сортировки  
Начать новую тему Ответить на тему

   Похожие торренты   Автор   Ответы   Просмотры   Последнее сообщение 
В этой теме нет новых непрочитанных сообщений. Скачать торрент Месть / Haevnen (2010) BDRip | P, A

в форуме Драмы, Мелодрамы, Размер: 2.42 ГБ, Здоровье: 0%

Anonymous

0
0|0

18
0

06 янв 2014, 11:14

Anonymous Перейти к последнему сообщению

В этой теме нет новых непрочитанных сообщений. Скачать торрент Месть / In a Better World / Haevnen (Сюзанна Бир / Susanne Bier) [2010, драма, триллер, BDRip]

в форуме Драмы, Мелодрамы, Размер: 1.44 ГБ, Здоровье: 100%

Anonymous

0
9|3

24
0

17 май 2014, 20:05

Anonymous Перейти к последнему сообщению

В этой теме нет новых непрочитанных сообщений. Скачать торрент Проверен Месть от кутюр / The Dressmaker (2015) BDRip 720p | P

в форуме 720p | 1080p, Размер: 6.26 ГБ, Здоровье: 100%

Гость

0
111|58

92
118

21 июл 2016, 23:38

Гость Перейти к последнему сообщению

В этой теме нет новых непрочитанных сообщений. Скачать торрент Проверен Кровавая месть / In the Blood (2014) BDRip 720p | Чистый звук

в форуме 720p | 1080p, Размер: 4.64 ГБ, Здоровье: 0%

Anonymous

0
0|0

56
0

03 июл 2014, 08:54

Anonymous Перейти к последнему сообщению

В этой теме нет новых непрочитанных сообщений. Скачать торрент Нибелунги: Месть Кримхильды / Die Nibelungen, Teil 2 - Kriemhilds Rache (1967) BDRip 720p

в форуме 720p | 1080p, Размер: 4.37 ГБ, Здоровье: 100%

Anonymous

0
110|2

71
1

18 янв 2014, 08:08

Anonymous Перейти к последнему сообщению



Сейчас этот форум просматривают: нет зарегистрированных пользователей и гости: 3


Вы не можете начинать темы
Вы не можете отвечать на сообщения
Вы не можете редактировать свои сообщения
Вы не можете удалять свои сообщения
Вы не можете добавлять вложения

Перейти:  

!ВНИМАНИЕ!
 Ресурс не предоставляет электронные версии произведений, а занимается лишь коллекционированием и каталогизацией ссылок, присылаемых и публикуемых на форуме нашими читателями. Если вы являетесь правообладателем какого-либо представленного материала и не желаете чтобы ссылка на него находилась в нашем каталоге, свяжитесь с нами и мы незамедлительно удалим её. Файлы для обмена на трекере предоставлены пользователями сайта, и администрация не несёт ответственности за их содержание. Просьба не заливать файлы, защищенные авторскими правами, а также файлы нелегального содержания!